<?xml version="1.0" standalone="no"?>
<!DOCTYPE svg PUBLIC "-//W3C//DTD SVG 1.1//EN" "http://www.w3.org/Graphics/SVG/1.1/DTD/svg11.dtd" >
<svg xmlns="http://www.w3.org/2000/svg">
<defs>
  <font id="flaticon" horiz-adv-x="300.0095081135903">
    <font-face font-family="flaticon"
      units-per-em="300" ascent="300"
      descent="0" />
    <missing-glyph horiz-adv-x="0" />
    <glyph glyph-name="001-facebook"
      unicode="&#xF101;"
      horiz-adv-x="300" d="M256.0546875 300H43.9453125C19.715881640625 300 0 280.284118359375 0 256.0546875V43.9453125C0 19.715881640625 19.715881640625 0 43.9453125 0H132.421875V106.0546875H97.265625V158.7890625H132.421875V194.53125C132.421875 223.610687109375 156.076812890625 247.265625 185.15625 247.265625H238.4765625V194.53125H185.15625V158.7890625H238.4765625L229.6875 106.0546875H185.15625V0H256.0546875C280.284118359375 0 300 19.715881640625 300 43.9453125V256.0546875C300 280.284118359375 280.284118359375 300 256.0546875 300zM256.0546875 300" />
    <glyph glyph-name="002-facebook-app-symbol"
      unicode="&#xF102;"
      horiz-adv-x="300" d="M173.2330361804575 0V136.8340649353161H219.1441223676832L226.0321389205809 190.1765513507242H173.2330361804575V224.2279504186568C173.2330361804575 239.6670082957864 177.5027555933711 250.1885405990757 199.6673950457332 250.1885405990757L227.8904724150601 250.2001430974804V297.9115502871619C223.0096880861679 298.5458201999498 206.255680389844 300 186.7557480710846 300C146.0367799199428 300 118.1598437530215 275.1455146674918 118.1598437530215 229.5109546922438V190.1765513507242H72.10952758494V136.8340649353161H118.1598437530215V0H173.2330361804575z" />
    <glyph glyph-name="003-twitter"
      unicode="&#xF103;"
      horiz-adv-x="300" d="M300 243.01875C288.84375 238.125 276.95625 234.88125 264.5625 233.30625C277.3125 240.91875 287.04375 252.88125 291.61875 267.3C279.73125 260.2125 266.60625 255.20625 252.61875 252.4125C241.33125 264.43125 225.24375 271.875 207.69375 271.875C173.64375 271.875 146.23125 244.2375 146.23125 210.35625C146.23125 205.48125 146.64375 200.79375 147.65625 196.33125C96.525 198.825 51.28125 223.33125 20.8875 260.6625C15.58125 251.45625 12.46875 240.91875 12.46875 229.575C12.46875 208.275 23.4375 189.39375 39.7875 178.4625C29.90625 178.65 20.2125 181.51875 12 186.0375C12 185.85 12 185.60625 12 185.3625C12 155.475 33.31875 130.65 61.275 124.93125C56.26875 123.5625 50.8125 122.90625 45.15 122.90625C41.2125 122.90625 37.2375 123.13125 33.50625 123.95625C41.475 99.6 64.0875 81.69375 90.975 81.1125C70.05 64.74375 43.48125 54.88125 14.71875 54.88125C9.675 54.88125 4.8375 55.10625 0 55.725C27.24375 38.15625 59.53125 28.125 94.35 28.125C207.525 28.125 269.4000000000001 121.875 269.4000000000001 203.1375C269.4000000000001 205.85625 269.30625 208.48125 269.175 211.0875C281.38125 219.75 291.6375 230.56875 300 243.01875z" />
    <glyph glyph-name="004-twitter-1"
      unicode="&#xF104;"
      horiz-adv-x="300" d="M278.3638001953126 300H21.6361998046875C9.686279296875 300 0 290.313720703125 0 278.3638001953125V21.6361998046875C0 9.686279296875 9.686279296875 0 21.6361998046875 0H278.3638001953126C290.313720703125 0 300 9.686279296875 300 21.6361998046875V278.3638001953126C300 290.313720703125 290.313720703125 300 278.3638001953125 300zM218.4883119140625 183.045959765625C218.5546875 181.569671484375 218.5867312500001 180.0865171875 218.5867312500001 178.596496875C218.5867312500001 133.10165390625 183.9569091796875 80.6396484375 120.627594140625 80.637359765625H120.6298828125H120.627594140625C101.18408203125 80.637359765625 83.090973046875 86.3365171875 67.854309375 96.1029052734375C70.5482484375 95.784759375 73.2902525390625 95.6268310546875 76.0665890625 95.6268310546875C92.198180859375 95.6268310546875 107.04345703125 101.129150390625 118.8285826171875 110.3645326171875C103.7567138671875 110.6437681640625 91.0491943359375 120.5978390625 86.663818359375 134.2781068359375C88.7626646484375 133.8752748046875 90.9210205078125 133.6555482421875 93.1343080078125 133.6555482421875C96.27685546875 133.6555482421875 99.32098359375 134.0789794921875 102.21405 134.8686216796875C86.460113671875 138.022613671875 74.592590625 151.9454953125 74.592590625 168.617248828125C74.592590625 168.772887890625 74.592590625 168.91250625 74.59716796875 169.056701953125C79.2366029296875 166.477203515625 84.54208359375 164.925384375 90.1908873046875 164.7514341796875C80.946350390625 170.9197998046875 74.8695375 181.4643861328125 74.8695375 193.409729296875C74.8695375 199.717712109375 76.57470703125 205.62744140625 79.5318603515625 210.715484765625C96.510315234375 189.882659765625 121.8841552734375 176.181793359375 150.4989621093751 174.742126171875C149.908447265625 177.264404296875 149.6040345703125 179.8919677734375 149.6040345703125 182.5927734375C149.6040345703125 201.59912109375 165.0238037109375 217.018890234375 184.03701796875 217.018890234375C193.9407351562501 217.018890234375 202.8854367187501 212.8326416015625 209.1682435546875 206.14013671875C217.0120242187501 207.6873779296875 224.3774414062501 210.552978515625 231.0310365234376 214.4966126953125C228.4561160156251 206.4605712890625 222.9995730468751 199.717712109375 215.8905029296876 195.4536439453125C222.85537734375 196.286773828125 229.4929505859376 198.133850390625 235.6613156250001 200.8758544921875C231.0539244140626 193.9704896484375 225.2105712890626 187.905120703125 218.4883119140626 183.045959765625zM218.4883119140625 183.045959765625" />
    <glyph glyph-name="005-instagram"
      unicode="&#xF105;"
      horiz-adv-x="300" d="M218.7923143737856 300H81.2071231272691C36.4287647038787 300 0 263.5712352961213 0 218.7928768727309V81.2053969586306C0 36.429327202824 36.4287647038787 0.0005624989453 81.2071231272691 0.0005624989453H218.7946030413694C263.5706727971761 0.0005624989453 299.9994375010548 36.429327202824 299.9994375010548 81.2053969586306V218.7928768727308C299.9994375010548 263.5712352961213 263.5706727971761 300 218.7923143737856 300zM282.4121902037059 81.2053969586307C282.4121902037059 46.1270322618145 253.8729677381855 17.5878097962941 218.7923143737856 17.5878097962941H81.2071231272691C46.1264697628692 17.5878097962941 17.5872472973488 46.1270322618145 17.5872472973488 81.2053969586306V218.7928768727308C17.5872472973488 253.8735302371308 46.1264697628692 282.4127527026512 81.2071231272691 282.4127527026512H218.7946030413694C253.8729677381856 282.4127527026512 282.4121902037059 253.8735302371308 282.4121902037059 218.7928768727308zM282.4121902037059 81.2053969586307M149.9997187505274 232.0290887735836C104.7681754346711 232.0290887735836 67.9709112264165 195.2318245653289 67.9709112264165 150.0002812494726S104.7681754346711 67.9714737253618 149.9997187505274 67.9714737253618S232.0285262746383 104.7687379336164 232.0285262746383 150.0002812494727S195.2312620663836 232.0290887735836 149.9997187505273 232.0290887735836zM149.9997187505274 85.5587210227106C114.4681691612454 85.5587210227106 85.5581585237653 114.4664429926069 85.5581585237653 150.0002812494727C85.5581585237653 185.5318308387547 114.4681691612454 214.4418414762348 149.9997187505274 214.4418414762348C185.5335570073932 214.4418414762348 214.4412789772895 185.5318308387547 214.4412789772895 150.0002812494727C214.4412789772895 114.4664429926069 185.5335570073931 85.5587210227106 149.9997187505273 85.5587210227106zM149.9997187505274 85.5587210227106M233.9900397843005 261.1611142291609C220.6233656280645 261.1611142291609 209.7514985128153 250.2869584463279 209.7514985128153 236.9225729576757C209.7514985128153 223.5558988014398 220.6233656280645 212.6817430186068 233.9900397843005 212.6817430186068S258.2308697233693 223.5558988014398 258.2308697233693 236.9225729576757S247.3567139405364 261.1611142291609 233.9900397843005 261.1611142291609zM233.9900397843005 230.2712795694758C230.3233599405752 230.2712795694758 227.3387463961006 233.2558931139504 227.3387463961006 236.9225729576757C227.3387463961006 240.5915420549212 230.3233599405752 243.573866931812 233.9900397843005 243.573866931812C237.6590088815459 243.573866931812 240.6436224260205 240.5915420549212 240.6436224260205 236.9225729576757C240.6436224260205 233.2558931139504 237.6590088815459 230.2712795694758 233.9900397843005 230.2712795694758zM233.9900397843005 230.2712795694758" />
    <glyph glyph-name="006-instagram-1"
      unicode="&#xF106;"
      horiz-adv-x="300" d="M237.2056640625 244.4888671875C233.190234375 244.4888671875 229.9224609375 241.22109375 229.9224609375 237.2056640625S233.190234375 229.9224609375 237.2056640625 229.9224609375C241.2216796875 229.9224609375 244.4888671875 233.1896484375 244.4888671875 237.2056640625S241.2216796875 244.4888671875 237.2056640625 244.4888671875zM150 214.56796875C114.397265625 214.56796875 85.43203125 185.602734375 85.43203125 150C85.43203125 114.397265625 114.397265625 85.4314453125 150 85.4314453125C185.6033203125 85.4314453125 214.5685546875 114.3966796875 214.5685546875 149.9994140625C214.5685546875 185.6021484375 185.6033203125 214.56796875 150 214.56796875zM217.7595703125 300H82.2404296875C36.89296875 300 0 263.10703125 0 217.758984375V82.2404296875C0 36.8923828125 36.89296875 0 82.2404296875 0H217.7595703125C263.1076171875 0 300 36.89296875 300 82.2404296875V217.758984375C300 263.10703125 263.1076171875 300 217.7595703125 300zM150 67.715625C104.6279296875 67.715625 67.7162109375 104.6279296875 67.7162109375 150S104.628515625 232.283203125 150 232.283203125S232.284375 195.371484375 232.284375 150S195.371484375 67.715625 150 67.715625zM237.2056640625 212.20546875C223.4208984375 212.20546875 212.2060546875 223.4203125 212.2060546875 237.205078125C212.2060546875 250.98984375 223.4208984375 262.2052734375 237.2056640625 262.2052734375C250.9904296875 262.2052734375 262.2052734375 250.9904296875 262.2052734375 237.2056640625S250.9904296875 212.20546875 237.2056640625 212.20546875z" />
    <glyph glyph-name="007-reddit"
      unicode="&#xF107;"
      horiz-adv-x="300" d="M181.4094544921875 98.8197328125C174.6894837890625 92.099762109375 160.29052734375 89.70108046875 150.0297544921875 89.70108046875C139.7392271484375 89.70108046875 125.37002578125 92.099762109375 118.650055078125 98.8197328125C117.059326171875 100.41046171875 114.5095828125 100.41046171875 112.921142578125 98.8197328125C111.330413671875 97.22900390625 111.330413671875 94.679260546875 112.921142578125 93.0908203125C123.5710142578125 82.4409486328125 144.03076171875 81.6009521484375 150.0297544921875 81.6009521484375S176.458740234375 82.4409486328125 187.1406556640625 93.0908203125C188.6993408203125 94.68154921875 188.6993408203125 97.231292578125 187.1406556640625 98.8197328125C185.5499267578125 100.41046171875 183.0001828125 100.41046171875 181.4094544921875 98.8197328125zM181.4094544921875 98.8197328125M131.25 134.3696595703125C131.25 142.9801939453125 124.2301939453125 150 115.6196595703125 150C107.01141328125 150 99.989319140625 142.9801939453125 99.989319140625 134.3696595703125C99.989319140625 125.76141328125 107.01141328125 118.7393191406251 115.6196595703125 118.7393191406251C124.2301939453125 118.7393191406251 131.25 125.759124609375 131.25 134.3696595703125zM131.25 134.3696595703125M150 300C67.1699525390625 300 0 232.8300474609375 0 150S67.1699525390625 0 150 0S300 67.1699525390625 300 150S232.8300474609375 300 150 300zM237.030029296875 129.991149609375C237.359619140625 127.830505078125 237.5404359375 125.6401060546875 237.5404359375 123.4199525390625C237.5404359375 89.760589453125 198.36044296875 62.489319140625 150.0297544921875 62.489319140625S62.5190736328125 89.760589453125 62.5190736328125 123.4199525390625C62.5190736328125 125.6698605468751 62.69988984375 127.8900146484375 63.0294796875 130.0506591796876C55.410003515625 133.4701535156251 50.099944921875 141.1193847656251 50.099944921875 150.0000000000001C50.099944921875 162.0597837890626 59.880065625 171.8696595703126 71.9696044921875 171.8696595703126C77.8495787109375 171.8696595703126 83.1596373046875 169.5602414062501 87.08953828125 165.7791140625001C102.268981640625 176.7288210937501 123.27117890625 183.7211607421876 146.6400146484375 184.3208314453126C146.6400146484375 184.6206667968751 157.5599671875 236.6409304687501 157.5599671875 236.6409304687501C157.7705384765625 237.6594544921876 158.37020859375 238.5314941406251 159.2399595703125 239.0991210937501C160.109710546875 239.6690367187501 161.1602783203125 239.8498535156251 162.181091015625 239.6392822265626L198.541259765625 231.9007875000001C201.091003125 237.0597837890626 206.3392640625 240.6303404296876 212.489319140625 240.6303404296876C221.1296080078125 240.6303404296876 228.1196595703125 233.6402894531251 228.1196595703125 225.0000000000001S221.1296080078125 209.3696595703126 212.489319140625 209.3696595703126C204.1191099609375 209.3696595703126 197.3396302734375 215.9706117187501 196.950530859375 224.2492675781251L164.3989564453125 231.1798095703126L154.4403076171875 184.2887876953126C177.3902894531249 183.4808349609376 198.0010986328125 176.5205384765626 212.9402162109374 165.7196044921876C216.8701171874999 169.5281982421876 222.2099302734374 171.8696595703126 228.1196595703124 171.8696595703126C240.2114871093749 171.8696595703126 249.9893191406249 162.0895382812501 249.9893191406249 150.0000000000001C249.9893191406249 141.0598757812501 244.6197509765624 133.4106445312501 237.0300292968749 129.9911496093751zM237.030029296875 129.991149609375M184.3803404296875 150C175.7698060546875 150 168.75 142.9801939453125 168.75 134.3696595703125C168.75 125.76141328125 175.7698060546875 118.739319140625 184.3803404296875 118.739319140625C192.9885867187501 118.739319140625 200.0106808593751 125.76141328125 200.0106808593751 134.3696595703125C200.0106808593751 142.9801939453125 192.990875390625 150 184.3803404296875 150zM184.3803404296875 150" />
    <glyph glyph-name="008-reddit-logo"
      unicode="&#xF108;"
      horiz-adv-x="300" d="M85.1234430957437 130.4091528539283A20.2136088486039 20.2136088486039 0 0 1 125.5506607929515 130.4091528539283A20.2136088486039 20.2136088486039 0 0 1 85.1234430957437 130.4091528539283M300 146.7625899280575C300 171.7396127151142 280.3378442620353 192.0578074984946 256.1689855164327 192.0578074984946C247.6880169872913 192.0578074984946 239.8155484423034 189.4906981903464 233.1125408043609 185.1931670522613C212.3189554083605 197.2680886128102 186.0964092162393 204.7697524799543 157.4588787120084 205.7965962032136L173.964440782176 253.1835324691789L208.154533641809 244.9973061198618C208.0404398947802 243.8658764618262 207.821760212975 242.7819858650525 207.821760212975 241.6220327702596C207.821760212975 222.7775488860014 223.1578613760974 207.4414477228789 242.011853072608 207.4414477228789C260.8373213323614 207.4414477228789 276.201945932241 222.7680410737489 276.201945932241 241.6220327702596S260.8468291446138 275.8026178176402 242.011853072608 275.8026178176402C229.7182518302539 275.8026178176402 219.0314708585554 269.2422273634837 213.0130257027858 259.4967198047729L164.1238551009413 271.1913288752258L141.3051056951795 205.7015180806896C112.8006845624822 204.2373149938199 86.8538649256806 196.2887839508129 66.4500998320286 183.8905967736824C66.8589357588819 184.1758311412544 67.2107248122207 184.499096757836 67.6195607390739 184.784331125408C60.7549202928406 189.3670966310652 52.6067251925332 192.067315310747 43.8405222958197 192.067315310747C19.6621557379647 192.067315310747 0.0095078122524 171.758628339619 0.0095078122524 146.7720977403099C0.0095078122524 130.0668716128419 8.8993122682471 115.5769657401832 21.9915697398029 107.7520362564574C27.3539758501569 61.049662472665 83.0222165879631 24.1878743701074 150.8129179475803 24.1878743701074C219.0409786708079 24.1878743701074 274.9944537761861 61.5440687097898 279.7293442778817 108.6742940449402C291.8803283364498 116.6893797737141 300 130.7514340950147 300 146.7625899280575zM241.9928374481032 260.5711025892942C252.4419231134916 260.5711025892942 260.9514150793903 252.0616106233955 260.9514150793903 241.6030171457548C260.9514150793903 231.1539314803664 252.4324153012392 222.6444395144677 241.9928374481032 222.6444395144677C231.5057205337052 222.6444395144677 223.0152441923114 231.1539314803664 223.0152441923114 241.6030171457548C223.0152441923114 252.071118435648 231.5342439704624 260.5711025892942 241.9928374481032 260.5711025892942zM43.8310144835673 176.8453078946535C47.2823503311888 176.8453078946535 50.5340221215098 176.0941907267138 53.5955376667829 174.9152220074161C37.0519443476056 161.6518239153171 25.9373118245492 145.0131524736158 22.5905619117041 126.6440592019776C18.0173042182994 131.9874496878268 15.1934839793364 139.0232307546034 15.1934839793364 146.7625899280575C15.1934839793364 163.3442144962444 28.0480461445821 176.8453078946535 43.8310144835673 176.8453078946535zM150.7939023230755 39.3813583494438C87.8426773999303 39.3813583494438 36.6431084207524 73.3432637150192 36.6431084207524 115.0920673153108C36.6431084207524 156.8503787278547 87.8426773999303 190.8027762811777 150.7939023230755 190.8027762811777C213.7356194339682 190.8027762811777 264.9256806008937 156.8408709156023 264.9256806008937 115.0920673153108C264.9256806008937 73.3527715272716 213.7356194339682 39.3813583494438 150.7939023230755 39.3813583494438zM278.6264380566032 128.2984185338953C274.8898678414097 146.1731055684087 263.8037587551105 162.3458942097423 247.516876366748 175.2765188730073C250.2646341076918 176.2082844737426 253.1359934079169 176.8453078946534 256.1689855164327 176.8453078946534C271.9424460431655 176.8453078946534 284.7875003961589 163.3537223084968 284.7875003961589 146.7625899280575C284.768484771654 139.7838557347954 282.4295629575634 133.4041137134345 278.6264380566032 128.2984185338953zM172.0438627071911 130.4091528539283A20.2136088486039 20.2136088486039 0 0 1 212.471080404399 130.4091528539283A20.2136088486039 20.2136088486039 0 0 1 172.0438627071911 130.4091528539283M189.005799765474 85.4752321490825C146.1826133806611 57.2085063226951 111.6312236554369 83.8398884416696 110.090958070548 85.0473805977244C106.8107628434697 87.6810445916395 102.0378410927646 87.1581149177574 99.413684911102 83.896935315184C96.7895287294394 80.6072322758533 97.2839349665642 75.8343105251481 100.5546223813901 73.2006465312331C100.8398567489621 72.9629512249231 120.578074984946 57.4462016290052 149.2441289259342 57.4462016290052C163.4963394922828 57.4462016290052 179.9733781256933 61.2968655912275 197.3726745475866 72.7727949798751C200.8810572687225 75.0927011694609 201.8508541184674 79.8085760466516 199.5499635533864 83.2979431432827C197.2205495515482 86.815833676671 192.5046746743574 87.7951383386682 189.005799765474 85.4752321490825z" />
    <glyph glyph-name="009-discord"
      unicode="&#xF109;"
      horiz-adv-x="300" d="M283.9623046875 168.130078125C272.021484375 209.15625 258.5554687500001 230.354296875 258.3380859375 230.7345703125C257.5705078125 231.671484375 238.5416015625001 254.443359375 192.6785156250001 271.28671875L186.6181640625 254.78671875C208.4367187500001 246.7734375 223.9160156250001 236.99765625 232.4291015625001 230.68125C207.0134765625001 238.2708984375 176.7785156250001 242.919140625 150.0000000000001 242.919140625S92.9865234375001 238.2708984375 67.5708984375001 230.68125C76.0833984375001 236.9970703125 91.5626953125001 246.7734375 113.3812500000001 254.78671875L107.3208984375001 271.28671875C61.4589843750001 254.443359375 42.4300781250001 231.671484375 41.6625000000001 230.7345703125C41.4451171875001 230.354296875 27.9785156250001 209.15625 16.0382812500001 168.130078125C4.5304687500001 128.593359375 0.1587890625001 72.8185546875 1e-13 70.58203125C1.0253906250001 68.97890625 24.6093750000001 28.71328125 88.8826171875001 28.71328125L105.1740234375001 52.304296875C86.9220703125001 57.1505859375 69.5179687500001 64.9658203125 53.5863281250001 75.570703125L63.3263671875001 90.2033203125C89.0285156250001 73.095703125 118.9998046875001 64.05234375 150.0000000000001 64.05234375S210.9714843750001 73.095703125 236.6736328125001 90.2033203125L246.4136718750001 75.570703125C230.4826171875001 64.9658203125 213.0779296875001 57.1505859375 194.8259765625001 52.304296875L211.1173828125001 28.71328125C275.3906250000001 28.71328125 298.9746093750001 68.97890625 300.0000000000001 70.58203125C299.8412109375001 72.8185546875 295.4695312500001 128.593359375 283.9623046875001 168.130078125zM109.360546875 122.14453125H91.782421875V151.44140625H109.360546875zM208.217578125 122.14453125H190.639453125V151.44140625H208.217578125z" />
    <glyph glyph-name="010-discord-1"
      unicode="&#xF10A;"
      horiz-adv-x="300" d="M133.203277409286 141.9469371829887C133.203277409286 129.9141630901288 124.582520483808 120.1229028482247 113.7436597737027 120.1229028482247C103.0745220444791 120.1229028482247 94.2840421381194 129.9141630901288 94.2840421381194 141.9469371829887C94.2840421381194 153.9738587592665 102.9047990635974 163.7709715177526 113.7436597737027 163.7709715177526C124.6644557159579 163.7709715177526 133.3730003901678 153.8860710105345 133.203277409286 141.9469371829887zM205.148263753414 141.9469371829887C205.148263753414 129.9141630901288 196.615294576668 120.1229028482247 185.6886461178307 120.1229028482247C175.0195083886071 120.1229028482247 166.2290284822474 129.9141630901288 166.2290284822474 141.9469371829887C166.2290284822474 153.9738587592665 174.8497854077253 163.7709715177526 185.6886461178307 163.7709715177526C196.615294576668 163.7709715177526 205.3179867342957 153.8860710105345 205.148263753414 141.9469371829887zM267.5829106515802 300H32.4170893484198C14.5142411236832 300 0 285.4857588763168 0 267.5829106515802V32.4170893484198C0 14.5142411236832 14.5142411236832 0 32.4170893484198 0H267.5829106515802C285.4857588763168 0 300 14.5142411236832 300 32.4170893484198V267.5829106515802C300 285.4857588763168 285.4857588763168 300 267.5829106515802 300zM256.97815060476 95.5130706203668C256.9664455715958 95.3140850565743 256.8611002731174 95.1385095591105 256.6972298088178 95.0156067108857C238.1798673429575 81.4143581740148 220.2360515021459 73.156457276629 202.543893874366 67.6843542723371C202.2629730784237 67.5965665236052 201.9586422161529 67.7019118220835 201.7889192352712 67.9418650019508C197.6980101443621 73.6305111197815 193.9875146312915 79.629340616465 190.733515411627 85.9266484588373C190.5462348809988 86.2953570035115 190.7159578618806 86.7401482637534 191.1022239563012 86.8864611783066C196.9957081545064 89.1104174795162 202.6082715567694 91.7791650409676 207.9984393289114 94.9278189621537C208.425673039407 95.1794771751853 208.4549356223176 95.7881388997269 208.0569644947327 96.0807647288334C206.9157237612173 96.9293796332423 205.7803355442841 97.8248146703082 204.6976199765899 98.7202497073741C204.4927818962154 98.8841201716738 204.2177136168552 98.9192352711666 203.9894654701522 98.802184939524C168.9680062426844 82.6258291065158 130.6047600468201 82.6258291065158 95.1736246586032 98.802184939524C94.939523995318 98.9075302380023 94.6644557159579 98.8724151385095 94.4713226687476 98.7085446742099C93.3886071010535 97.8189621537261 92.2532188841202 96.9293796332423 91.1178306671869 96.0807647288334C90.7257120561842 95.7881388997269 90.7608271556769 95.1794771751853 91.1822083495903 94.9278189621537C96.5782286383145 91.8376902067889 102.1849395239953 89.1104174795162 108.0725712056184 86.8806086617245C108.458837300039 86.7342957471713 108.6402653140851 86.2953570035115 108.4529847834569 85.9266484588373C105.269215762778 79.6176355833008 101.5528677331252 73.6188060866172 97.3917284432306 67.9360124853687C97.2103004291845 67.7019118220835 96.9118220834959 67.5965665236051 96.6309012875537 67.6843542723371C79.0206788919235 73.1564572766289 61.0827155676941 81.4143581740148 42.5653531018338 95.0156067108856C42.4073351541163 95.1385095591104 42.2961373390558 95.3257900897385 42.2785797893094 95.524775653531C38.5095591104175 135.9246976199766 46.1997658993367 176.8279360124853 74.2684354272337 218.7670698400312C74.3386656262193 218.8782676550916 74.4381584081155 218.9660554038236 74.5610612563402 219.0128755364806C88.3671478735857 225.3570035115099 103.1681623097932 230.0214592274678 118.6305111197815 232.6843542723371C118.9172844323059 232.725321888412 119.1982052282482 232.5965665236052 119.3386656262193 232.3507608271557C121.2524385485759 228.9621537261022 123.4354272337105 224.6254389387436 124.9161139289895 221.0788138899727C141.2153726102224 223.566133437378 157.7721420210691 223.566133437378 174.4166991806477 221.0788138899727C175.8915333593446 224.549356223176 177.9984393289115 228.9621537261022 179.9063597346859 232.3507608271557C180.0468201326571 232.6082715567694 180.3277409285993 232.7370269215763 180.6145142411237 232.6843542723371C196.0827155676941 230.0097541943036 210.8837300039017 225.3452984783457 224.683964104565 219.0128755364806C224.8068669527897 218.9660554038236 224.9063597346859 218.8782676550916 224.9648849005072 218.7553648068669C249.4166991806477 182.7916504096762 261.4962934061647 142.2220054623489 256.97815060476 95.5130706203668z" />
    <glyph glyph-name="011-telegram"
      unicode="&#xF10B;"
      horiz-adv-x="300" d="M5.299 155.355L74.425 129.555L101.181 43.508C102.893 37.997 109.632 35.96 114.105 39.617L152.637 71.029C156.676 74.32 162.429 74.484 166.65 71.42L236.148 20.963C240.933 17.485 247.712 20.107 248.9120000000001 25.889L299.823 270.78C301.133 277.096 294.927 282.365 288.913 280.039L5.218 170.598C-1.783 167.898 -1.722 157.986 5.299 155.355zM96.869 143.289L231.967 226.496C234.395 227.987 236.893 224.704 234.808 222.77L123.313 119.13C119.394 115.482 116.866 110.6 116.15 105.301L112.352 77.155C111.849 73.397 106.57 73.024 105.533 76.661L90.926 127.986C89.253 133.84 91.691 140.093 96.869 143.289z" />
    <glyph glyph-name="012-telegram-1"
      unicode="&#xF10C;"
      horiz-adv-x="300" d="M210.2215909090909 193.7215909090909L134.1477272727273 131.5397727272727L130.5681818181819 128.6079545454546A3.8693181818182 3.8693181818182 0 0 1 129.1363636363637 126.0852272727273L128.3352272727273 119.4715909090909L126.1363636363637 100.8920454545455A0.8522727272727 0.8522727272727 0 0 0 124.4318181818182 100.7386363636364L118.2443181818182 119.3181818181818L111.8522727272728 138.3238636363636A3.8181818181818 3.8181818181818 0 0 0 113.6931818181819 142.8579545454545L192.8522727272728 188.2329545454546L207.75 196.7556818181818C209.9147727272728 198.0170454545455 212.1306818181819 195.2897727272728 210.2215909090909 193.7215909090909zM259.0909090909091 300H40.9090909090909A40.9090909090909 40.9090909090909 0 0 1 0 259.0909090909091V40.9090909090909A40.9090909090909 40.9090909090909 0 0 1 40.9090909090909 0H259.0909090909091A40.9090909090909 40.9090909090909 0 0 1 300 40.9090909090909V259.0909090909091A40.9090909090909 40.9090909090909 0 0 1 259.0909090909091 300zM243.5625 213.1704545454546L214.2784090909091 83.7784090909091C212.8977272727273 77.7102272727273 205.1931818181818 74.9659090909091 199.7897727272727 78.6647727272727L155.5738636363636 108.6647727272727L133.0568181818182 87.375A7.7386363636364 7.7386363636364 0 0 0 120.5795454545455 90.1363636363636L112.4488636363636 114L104.3181818181818 137.8636363636364L60.7329545454545 149.7954545454546A5.6590909090909 5.6590909090909 0 0 0 60.2386363636363 160.7215909090909L228.6136363636364 221.3863636363637L231.7159090909091 222.4943181818182C238.2443181818182 224.7784090909091 244.9943181818182 219.4943181818182 243.5625 213.1704545454546z" />
    <glyph glyph-name="013-tik-tok"
      unicode="&#xF10D;"
      horiz-adv-x="300" d="M281.4375 224.771484375C264.31640625 224.771484375 248.51953125 230.443359375 235.833984375 240.01171875C221.28515625 250.98046875 210.83203125 267.0703125 207.140625 285.615234375C206.2265625 290.197265625 205.734375 294.92578125 205.6875 299.771484375H156.779296875V166.130859375L156.720703125 92.9296875C156.720703125 73.359375 143.9765625 56.765625 126.310546875 50.9296875C121.18359375 49.236328125 115.646484375 48.43359375 109.880859375 48.75C102.5214843749999 49.154296875 95.625 51.375 89.6308593749999 54.9609375C76.8749999999999 62.58984375 68.2265624999999 76.4296875 67.9921874999999 92.26171875C67.6230468749999 117.005859375 87.6269531249999 137.1796875 112.3535156249999 137.1796875C117.234375 137.1796875 121.9218749999999 136.3828125 126.3105468749999 134.935546875V171.462890625V184.59375C121.6816406249999 185.279296875 116.9707031249999 185.63671875 112.2070312499999 185.63671875C85.1425781249999 185.63671875 59.8300781249999 174.38671875 41.7363281249999 154.119140625C28.0605468749999 138.802734375 19.8574218749999 119.26171875 18.5917968749999 98.771484375C16.9335937499999 71.853515625 26.7832031249999 46.265625 45.8847656249999 27.3867187500001C48.6914062499999 24.615234375 51.6386718749999 22.0429687500001 54.7207031249999 19.6699218750001C71.0976562499999 7.0664062500001 91.1191406249999 0.234375 112.2070312499999 0.234375C116.9707031249999 0.234375 121.681640625 0.5859375000001 126.3105468749999 1.271484375C146.009765625 4.189453125 164.1855468749999 13.20703125 178.529296875 27.38671875C196.1542968749999 44.806640625 205.8925781249999 67.93359375 205.998046875 92.548828125L205.7460937499999 201.861328125C214.154296875 195.375 223.34765625 190.0078125 233.2148437499999 185.841796875C248.5605468749999 179.3671875 264.8320312499999 176.0859375 281.578125 176.091796875V211.60546875V224.783203125C281.58984375 224.771484375 281.44921875 224.771484375 281.4375 224.771484375z" />
    <glyph glyph-name="014-tiktok"
      unicode="&#xF10E;"
      horiz-adv-x="300" d="M278.363671875 300H21.636328125C9.6861328125 300 0 290.3138671875 0 278.363671875V21.636328125C0 9.6861328125 9.6861328125 0 21.636328125 0H278.363671875C290.3138671875 0 300 9.6861328125 300 21.636328125V278.363671875C300 290.3138671875 290.3138671875 300 278.363671875 300zM225.1447265625 185.1802734375V164.89921875C215.5810546875 164.895703125 206.288671875 166.76953125 197.525390625 170.4673828125C191.8904296875 172.8462890625 186.6404296875 175.9119140625 181.838671875 179.615625L181.9828125 117.188671875C181.9224609375 103.1314453125 176.361328125 89.923828125 166.29609375 79.97578125C158.1046875 71.878125 147.7248046875 66.7283203125 136.4748046875 65.0619140625C133.8310546875 64.6705078125 131.141015625 64.46953125 128.4205078125 64.46953125C116.377734375 64.46953125 104.94375 68.3712890625 95.591015625 75.5689453125C93.830859375 76.92421875 92.148046875 78.3931640625 90.544921875 79.97578125C79.6365234375 90.75703125 74.0115234375 105.3703125 74.9583984375 120.7423828125C75.6814453125 132.444140625 80.366015625 143.60390625 88.1759765625 152.35078125C98.508984375 163.925390625 112.9646484375 170.3501953125 128.4205078125 170.3501953125C131.141015625 170.3501953125 133.8310546875 170.1462890625 136.4748046875 169.754296875V162.25546875V141.3955078125C133.96875 142.222265625 131.2916015625 142.676953125 128.504296875 142.676953125C114.383203125 142.676953125 102.9591796875 131.15625 103.1701171875 117.0251953125C103.3037109375 107.98359375 108.2431640625 100.0798828125 115.5275390625 95.7234375C118.9505859375 93.6755859375 122.8892578125 92.4076171875 127.0921875 92.1767578125C130.38515625 91.9962890625 133.546875 92.4544921875 136.4748046875 93.4212890625C146.5634765625 96.7541015625 153.84140625 106.23046875 153.84140625 117.406640625L153.8748046875 159.2109375V235.53046875H181.8052734375C181.8322265625 232.7630859375 182.112890625 230.0625 182.6349609375 227.4462890625C184.7431640625 216.85546875 190.7126953125 207.666796875 199.0212890625 201.4025390625C206.2658203125 195.9380859375 215.2869140625 192.6990234375 225.0650390625 192.6990234375C225.071484375 192.6990234375 225.1517578125 192.6990234375 225.1453125 192.70546875V185.1802734375z" />
    <glyph glyph-name="015-youtube"
      unicode="&#xF10F;"
      horiz-adv-x="300" d="M295.8177894099495 221.4784468446649C294.2430516221021 234.614689740034 281.8634153010801 247.2111271704526 268.91101388699 248.8986601300807C189.9272935018262 258.7125725111819 110.0580577745659 258.7125725111819 31.0999726557159 248.8986601300807C18.1365846989199 247.2147893513545 5.756948377898 234.614689740034 4.1822105900506 221.4784468446649C-1.3938260512901 173.3346842711772 -1.3938260512901 126.6543291861169 4.1822105900506 78.521553155335C5.756948377898 65.385310259966 18.1365846989199 52.7771538506611 31.0999726557159 51.1013398699193C110.0580577745659 41.2874274888181 189.9302232465478 41.2874274888181 268.91101388699 51.1013398699193C281.8634153010801 52.7742241059395 294.2430516221021 65.385310259966 295.8177894099495 78.521553155335C301.3945584874705 126.6499345690346 301.3945584874705 173.3346842711772 295.8177894099495 221.4784468446649zM124.9982909822458 99.9907224750483V199.9938963651634L199.9997558546066 149.9904783296549L124.9982909822458 99.9907224750483z" />
    <glyph glyph-name="016-youtube-1"
      unicode="&#xF110;"
      horiz-adv-x="300" d="M131.3163755859375 121.897887890625L180.1094056640625 150L131.3163755859375 178.102112109375zM131.3163755859375 121.897887890625M278.3638001953126 300H21.6361998046875C9.686279296875 300 0 290.313720703125 0 278.3638001953125V21.6361998046875C0 9.686279296875 9.686279296875 0 21.6361998046875 0H278.3638001953126C290.313720703125 0 300 9.686279296875 300 21.6361998046875V278.3638001953126C300 290.313720703125 290.313720703125 300 278.3638001953125 300zM243.7271121093751 149.8466490234375S243.7271121093751 119.4259640625 239.8681640625001 104.75692734375C237.7052308593751 96.7277525390625 231.374358984375 90.39688125 223.3451841796875 88.23623671875C208.6761474609375 84.375 150 84.375 150 84.375S91.477203515625 84.375 76.6548158203125 88.389587109375C68.625641015625 90.550231640625 62.294769140625 96.8833921875 60.1318359375 104.9125669921875C56.27059921875 119.4259640625 56.27059921875 150 56.27059921875 150S56.27059921875 180.4183957031249 60.1318359375 195.0874330078124C62.29248046875 203.1166078124999 68.77899140625 209.6031187499999 76.6548158203125 211.7637632812499C91.3238525390625 215.625 150 215.625 150 215.625S208.6761474609375 215.625 223.3451841796875 211.6104128906249C231.374358984375 209.4497683593749 237.705230859375 203.1166078124999 239.8681640625 195.0874330078124C243.882751171875 180.4183957031249 243.727112109375 149.8466490234375 243.727112109375 149.8466490234375zM243.7271121093751 149.8466490234375" />
    <glyph glyph-name="017-wechat"
      unicode="&#xF111;"
      horiz-adv-x="300" d="M112.5 281.25C50.45625 281.25 0 239.19375 0 187.5C0 160.18125 13.95 134.83125 38.56875 116.83125L29.11875 97.93125C27.35625 94.425 27.975 90.16875 30.675 87.31875C32.475 85.40625 34.96875 84.375 37.5 84.375C38.7375 84.375 39.99375 84.61875 41.19375 85.125L74.34375 99.31875C89.8875 94.6125 106.4625 93.1875 123.09375 94.14375C128.26875 94.40625 132.24375 98.83125 131.9625 104.00625C131.68125 109.2 126.76875 113.4375 122.1 112.85625C106.575 112.06875 91.1625 113.4375 76.8375 118.21875C74.6625 118.93125 72.3 118.81875 70.18125 117.9375L57.3375 112.425L59.025 115.8187499999999C61.18125 120.1312499999999 59.7 125.3999999999999 55.59375 127.9499999999999C32.175 142.575 18.75 164.26875 18.75 187.5C18.75 228.8625 60.80625 262.5 112.5 262.5S206.25 228.8625 206.25 187.5C206.25 184.6875 206.11875 182.04375 205.65 179.4C204.73125 174.3 208.14375 169.425 213.225 168.525C218.4 167.56875 223.18125 171 224.1 176.1C224.75625 179.83125 225 183.5625 225 187.5C225 239.19375 174.54375 281.25 112.5 281.25zM268.21875 56.41875C288.2625 70.59375 300 91.03125 300 112.5C300 153.8625 257.94375 187.5 206.25 187.5S112.5 153.8625 112.5 112.5C112.5 66.69375 163.5 29.71875 223.2 38.79375L268.1812500000001 19.5C269.3625 19.0125 270.6375000000001 18.75 271.875 18.75C274.40625 18.75 276.9000000000001 19.78125 278.7 21.7125C281.41875 24.5625 282.0375 28.8 280.2750000000001 32.325L268.21875 56.41875zM251.4 67.9125C247.0875 65.4375 245.45625 60.0375 247.66875 55.59375L252.0375 46.81875L228.075 57.1125C226.9125 57.6 225.6375 57.8625 224.38125 57.8625C223.8375 57.8625 223.3125 57.825 222.7875 57.73125C217.03125 56.71875 211.6125 56.25 206.25 56.25C164.8875 56.25 131.25 81.4875 131.25 112.5C131.25 143.5125 164.8875 168.75 206.25 168.75S281.25 143.5125 281.25 112.5C281.25 95.025 270.375 78.76875 251.4 67.9125zM75.375 225H75.1875C70.0125 225 65.90625 220.8 65.90625 215.625C65.90625 210.45 70.2 206.25 75.375 206.25C80.55 206.25 84.75 210.45 84.75 215.625C84.75 220.8 80.55 225 75.375 225zM150.375 225H150.1875C145.0125 225 140.90625 220.8 140.90625 215.625C140.90625 210.45 145.2 206.25 150.375 206.25C155.55 206.25 159.75 210.45 159.75 215.625C159.75 220.8 155.55 225 150.375 225zM178.5 140.625H178.3125C173.11875 140.625 169.03125 136.425 169.03125 131.25C169.03125 126.075 173.325 121.875 178.5 121.875C183.675 121.875 187.875 126.075 187.875 131.25C187.875 136.425 183.675 140.625 178.5 140.625zM234.75 140.625H234.5625C229.3875 140.625 225.28125 136.425 225.28125 131.25C225.28125 126.075 229.5937500000001 121.875 234.7500000000001 121.875C239.925 121.875 244.1250000000001 126.075 244.1250000000001 131.25C244.125 136.425 239.925 140.625 234.75 140.625z" />
    <glyph glyph-name="018-wechat-1"
      unicode="&#xF112;"
      horiz-adv-x="300" d="M110.4715909090909 187.875C109.125 181.3295454545455 100.3977272727273 178.1761363636364 95.2840909090909 182.5738636363636C89.3522727272727 186.75 91.0227272727273 197.1477272727273 97.9772727272727 199.2613636363636C104.7954545454546 201.9034090909091 112.5 194.9488636363636 110.4715909090909 187.875zM144.8863636363637 199.1590909090909A9.5965909090909 9.5965909090909 0 0 0 157.7727272727273 189.8863636363636V189.7840909090909C157.7727272727273 182.25 147.8181818181818 177.5625 142.1931818181818 182.6590909090909C136.3636363636364 186.8522727272727 138.0681818181818 197.0625 144.8863636363636 199.1590909090909zM259.0909090909091 300H40.9090909090909A40.9090909090909 40.9090909090909 0 0 1 0 259.0909090909091V40.9090909090909A40.9090909090909 40.9090909090909 0 0 1 40.9090909090909 0H259.0909090909091A40.9090909090909 40.9090909090909 0 0 1 300 40.9090909090909V259.0909090909091A40.9090909090909 40.9090909090909 0 0 1 259.0909090909091 300zM99.4602272727273 115.5681818181818C91.8409090909091 111.5113636363636 84.2215909090909 107.3352272727273 76.6193181818182 103.3295454545454C78.7159090909091 110.0454545454545 80.9488636363636 116.6931818181818 83.2840909090909 123.3579545454545C71.1818181818182 131.4204545454545 61.125 143.5056818181818 57.8352272727273 157.9261363636364C45.2556818181818 206.5397727272727 110.3522727272727 247.7556818181818 162.6477272727273 218.1818181818182H162.4431818181818C177.1704545454546 210.0340909090909 188.8806818181819 195.8863636363636 192.2727272727273 179.1647727272727C146.7954545454546 182.4034090909091 116.0113636363637 145.9261363636364 128.0113636363637 111.4943181818182A84.0170454545455 84.0170454545455 0 0 0 99.4602272727273 115.5681818181818zM221.5397727272728 88.2954545454545Q224.3352272727273 80.1136363636364 226.8068181818182 71.8125C220.4318181818182 74.8977272727272 214.5852272727273 79.0227272727273 208.0568181818182 81.5795454545454C175.2102272727273 72.0681818181818 147.4431818181819 84.7329545454545 135.4090909090909 104.7954545454545C109.5 147.4090909090909 166.0909090909091 194.0284090909091 216.0170454545455 168.6818181818182C248.0454545454546 152.4204545454545 255.4772727272727 112.5 221.5909090909091 88.3295454545455zM205.875 150.2727272727273C201.8863636363637 150.1022727272727 199.4147727272728 146.3693181818182 198.6136363636364 142.7897727272727A11.9318181818182 11.9318181818182 0 0 1 201.2897727272728 137.0625A7.8238636363636 7.8238636363636 0 0 1 213.5795454545455 139.1761363636364H213.4772727272728C216.2897727272728 144.2386363636364 211.3636363636364 151.0738636363636 205.875 150.3068181818182zM166.3295454545455 149.8636363636363C161.2159090909091 148.2613636363636 159.6136363636364 140.7443181818181 163.5681818181819 137.1477272727273A7.7386363636364 7.7386363636364 0 0 1 176.1647727272728 139.9090909090909C178.6875 145.6875 172.1590909090909 152.3181818181818 166.3295454545455 149.8977272727272z" />
    <glyph glyph-name="019-whatsapp"
      unicode="&#xF113;"
      horiz-adv-x="300" d="M249.5836007331378 249.8898911073078C223.2456241935484 276.233044894407 188.2182457478006 290.7470138416835 150.9021030791789 290.7624633431085C74.0085457478006 290.7624633431085 11.4283587976539 228.2451084975103 11.3974293255132 151.4060457918142C11.3871197947214 126.8430203130114 17.8100942815249 102.8653599997478 30.018557771261 81.730411991665L10.2272727272727 9.5124729561453L84.1808331378299 28.8930415320048C104.5580551319648 17.7882675463281 127.498968914956 11.9363315158768 150.8453995601173 11.9294650610333H150.9038217008798C227.7887876832845 11.9294650610333 290.3758478005865 74.4519698576274 290.4050586510264 151.2944655710186C290.4205231671554 188.5346836340971 275.9232954545455 223.548453384603 249.5836007331378 249.8898911073078zM150.9021030791789 35.4659557604696H150.8539909090909C130.0489139296188 35.4745387191607 109.6441988269795 41.0603995145657 91.8392595307918 51.6124241050728L87.607106744868 54.1238300739212L43.721934457478 42.6225182111731L55.4355299120235 85.3679161153831L52.6776712609971 89.7504312487932C41.0706105571847 108.1937289582509 34.9414636363636 129.5106377999581 34.9517731671554 151.3974628331232C34.9758294721408 215.2640758357292 86.9919585043988 267.2242561398246 150.9484970674487 267.2242561398246C181.9189882697947 267.2139562378329 211.0320061583578 255.1495955173765 232.9230435483871 233.2541875255203S266.8627429618768 182.2553108995054 266.8524329912023 151.3030489691628C266.8249403225807 87.4312860155609 214.8122480938416 35.4659557604697 150.9021030791789 35.4659557604697zM214.5029555718475 122.2218957639287C211.0182598240469 123.9659752941604 193.8800173020528 132.3876823793559 190.6839945747801 133.5515462555911C187.4914086510264 134.7136940674317 185.1648413489736 135.2921927781276 182.843429032258 131.8074667253594C180.5185803519062 128.3227411120444 173.839580058651 120.4778162336971 171.8051225806451 118.1552379927696C169.7706651026393 115.8309432479945 167.7396444281525 115.5391186974221 164.2532304985337 117.2831982276538C160.7668161290322 119.0255612540378 149.5360609970674 122.7042645462696 136.2210180351906 134.567781572419C125.8597187683284 143.8014468329871 118.8645527859238 155.2049118240796 116.8300953079179 158.6896378768477C114.7990741935484 162.177796937311 116.8129126099707 163.8806777384821 118.3593747800587 165.7964182003464C122.1327439882698 170.4776238997193 125.9112673020528 175.3854226089254 127.0728325513197 177.7080008498529C128.2361164222874 180.0322960340811 127.6536153958944 182.0664831715844 126.7807231671555 183.8088461979685C125.9112673020528 185.5512092243526 118.9401576246334 202.6915970174058 116.0362442815249 209.6661986344848C113.2044994134898 216.4536890274905 110.3332341642229 215.5370170861658 108.1922423753666 215.6434473559656C106.1612217008798 215.7447276747695 103.8363730205279 215.7653270392997 101.5115239002933 215.7653270392997C99.1883934017595 215.7653270392997 95.4115882697947 214.8950037780315 92.215565542522 211.4068447175682C89.0212609970674 207.9204021609525 80.0174120234604 199.4969785719093 80.0174120234604 182.3565907788562S92.5076749266862 148.6577469111409 94.2500230205279 146.3334521663658C95.9923706744868 144.0091574215907 118.8301869501466 108.8357422663852 153.7957064516129 93.7535739830609C162.1122387096774 90.1624185393992 168.6039453079179 88.0218011320961 173.6677513196481 86.4167672025806C182.0186489736071 83.766315633016 189.6152173020528 84.1405372022564 195.6223653958945 85.0366097790508C202.320266568915 86.0373956823443 216.2435850439883 93.4617498719416 219.1509347507332 101.5950654142599C222.0548480938417 109.7300978998789 222.0548480938417 116.7012660698097 221.18195542522 118.1552379927696C220.3125000000001 119.607493411882 217.9876513196482 120.4778162336971 214.5029555718476 122.2218957639288zM214.5029555718475 122.2218957639287" />
    <glyph glyph-name="020-whatsapp-1"
      unicode="&#xF114;"
      horiz-adv-x="300" d="M201.8693181818182 201.8693181818182L201.4943181818182 202.2443181818182A72.8181818181818 72.8181818181818 0 0 1 85.1079545454546 117.7159090909091L88.3125 111.4090909090909L82.3465909090909 82.4318181818182L82.2613636363636 82.0568181818182L111.0511363636364 88.875L117.6136363636364 85.5511363636364A72.9204545454546 72.9204545454546 0 0 1 201.5113636363637 99.1875A72.8181818181818 72.8181818181818 0 0 1 201.8863636363637 201.7840909090909zM198.9375 120.5284090909091C195.4090909090909 114.9715909090909 189.8352272727273 108.1875 182.8295454545455 106.5C170.5568181818182 103.5170454545455 151.7215909090909 106.3977272727273 128.2840909090909 128.2329545454546L127.9943181818182 128.5056818181818C107.3863636363637 147.5965909090909 102.0340909090909 163.5 103.3295454545455 176.1136363636364C104.0454545454546 183.2897727272727 110.0113636363637 189.75 115.0397727272728 193.9943181818182A6.7159090909091 6.7159090909091 0 0 0 125.5227272727273 191.5909090909091L133.1079545454546 174.4431818181818A6.6306818181818 6.6306818181818 0 0 0 132.2727272727273 167.625L128.4375 162.6477272727273A6.6136363636364 6.6136363636364 0 0 1 127.8409090909091 155.3693181818182C129.9886363636364 151.6193181818182 135.1363636363637 146.0795454545455 140.8465909090909 140.9318181818182C147.2556818181819 135.1534090909091 154.3636363636364 129.8522727272727 158.8636363636364 128.0284090909091A6.5625 6.5625 0 0 1 166.0056818181818 129.5454545454546L170.4545454545455 134.0284090909091A6.8181818181818 6.8181818181818 0 0 0 177.1022727272727 135.7329545454546L195.1193181818182 130.6193181818182A6.8181818181818 6.8181818181818 0 0 0 198.9375 120.5284090909091zM259.0909090909091 300H40.9090909090909A40.9090909090909 40.9090909090909 0 0 1 0 259.0909090909091V40.9090909090909A40.9090909090909 40.9090909090909 0 0 1 40.9090909090909 0H259.0909090909091A40.9090909090909 40.9090909090909 0 0 1 300 40.9090909090909V259.0909090909091A40.9090909090909 40.9090909090909 0 0 1 259.0909090909091 300zM242.9488636363637 147.7840909090909A93.0170454545455 93.0170454545455 0 0 0 108.5965909090909 67.4829545454546L61.6363636363636 56.3522727272728A3.6306818181818 3.6306818181818 0 0 0 57.8181818181818 57.8352272727273A3.5625 3.5625 0 0 0 57.2556818181818 60.6136363636364L67.125 108.5284090909091A93 93 0 1 0 242.9488636363637 147.7329545454545z" />
    <glyph glyph-name="021-tumblr"
      unicode="&#xF115;"
      horiz-adv-x="300" d="M99.671052631579 173.2894736842105H71.0526315789474C71.0526315789474 174.671052631579 71.0526315789474 196.3815789473685 71.0526315789474 206.6447368421053C70.6578947368421 208.6184210526316 72.0394736842105 210.1973684210526 73.6184210526316 210.5921052631579C106.5789473684211 220.2631578947369 122.7631578947368 269.4078947368421 122.7631578947368 275.3289473684211C122.7631578947368 277.5 124.1447368421053 278.4868421052631 126.3157894736842 278.4868421052631H156.9078947368421C159.4736842105263 278.4868421052631 159.8684210526316 277.5 159.8684210526316 275.3289473684211V213.5526315789474H220.6578947368421V173.2894736842105H160.2631578947368C160.2631578947368 172.6973684210526 159.6710526315789 86.4473684210526 160.2631578947368 82.6973684210526C161.25 76.5789473684211 165 71.4473684210526 170.5263157894737 68.4868421052632C180.1973684210526 62.7631578947368 190.4605263157894 62.3684210526316 201.1184210526315 64.3421052631579C210.1973684210526 65.9210526315789 227.7631578947368 75 228.75 75.5921052631579V38.2894736842105C229.1447368421052 36.3157894736842 227.7631578947368 34.7368421052631 226.1842105263158 34.3421052631579C206.25 24.6710526315789 184.3421052631579 20.5263157894736 162.2368421052631 22.1052631578947C143.2894736842105 23.4868421052631 125.9210526315789 28.8157894736842 111.7105263157894 43.0263157894736C104.6052631578947 50.328947368421 99.078947368421 58.4210526315789 99.078947368421 69.4736842105263z" />
    <glyph glyph-name="022-tumblr-1"
      unicode="&#xF116;"
      horiz-adv-x="300" d="M259.0909090909091 300H40.9090909090909A40.9090909090909 40.9090909090909 0 0 1 0 259.0909090909091V40.9090909090909A40.9090909090909 40.9090909090909 0 0 1 40.9090909090909 0H259.0909090909091A40.9090909090909 40.9090909090909 0 0 1 300 40.9090909090909V259.0909090909091A40.9090909090909 40.9090909090909 0 0 1 259.0909090909091 300zM170.0625 56.25C128.8977272727273 56.25 120.8181818181818 87.4090909090909 120.8181818181818 95.9829545454545V157.7045454545455H95.7102272727273V189.8693181818182A72.5113636363636 72.5113636363636 0 0 1 137.0965909090909 243.75H162.8352272727273V190.1761363636364H196.9261363636364V157.7897727272727H162.8352272727273V104.1818181818182C162.8352272727273 94.7386363636364 167.5568181818182 88.3295454545455 178.1761363636364 88.3295454545455A22.1590909090909 22.1590909090909 0 0 1 194.3181818181819 94.7386363636364L204.3409090909091 71.9147727272728S194.3181818181819 56.25 170.0625 56.25z" />
    <glyph glyph-name="023-linkedin-logo"
      unicode="&#xF117;"
      horiz-adv-x="300" d="M270 300H30C13.5 300 0 286.5 0 270V30C0 13.5 13.5 0 30 0H270C286.5 0 300 13.5 300 30V270C300 286.5 286.5 300 270 300zM90 45H45V180H90V45zM67.5 205.5C52.5 205.5 40.5 217.5 40.5 232.5S52.5 259.5 67.5 259.5S94.5 247.5 94.5 232.5S82.5 205.5 67.5 205.5zM255 45H210V124.5C210 136.4994117647059 199.5 147 187.5 147S165 136.4994117647059 165 124.5V45H120V180H165V162C172.5 174 189 183 202.5 183C231 183 255 159 255 130.5V45z" />
    <glyph glyph-name="024-linkedin"
      unicode="&#xF118;"
      horiz-adv-x="300" d="M270 30V117.9C270 161.1 260.7 194.1 210.3 194.1C186 194.1 169.8 180.9 163.2 168.3H162.6V190.2H114.9V30H164.7V109.5C164.7 130.5 168.6 150.6 194.4 150.6C219.9 150.6 220.2 126.9 220.2 108.3V30.3H270zM33.9 190.2H83.7V29.9999999999999H33.9zM58.8 270C42.9 270 30 257.1 30 241.2S42.9 212.1 58.8 212.1S87.6 225.3 87.6 241.2S74.7 270 58.8 270z" />
    <glyph glyph-name="025-snapchat"
      unicode="&#xF119;"
      horiz-adv-x="300" d="M278.3638001953126 300H21.6361998046875C9.686279296875 300 0 290.313720703125 0 278.3638001953125V21.6361998046875C0 9.686279296875 9.686279296875 0 21.6361998046875 0H278.3638001953126C290.313720703125 0 300 9.686279296875 300 21.6361998046875V278.3638001953126C300 290.313720703125 290.313720703125 300 278.3638001953125 300zM239.833831640625 101.568603515625C238.753509375 99.0509033203125 233.896637109375 95.473480078125 216.909026953125 92.85049453125C215.517425390625 92.637633984375 214.9795535156251 90.8271791015625 214.1510009765625 87.034606640625C213.848876953125 85.654449609375 213.5444642578125 84.29718046875 213.1256103515625 82.871246484375C212.7639773437501 81.6352845703125 211.9926451171875 81.056213671875 210.6948855468751 81.056213671875H210.4843136718751C209.58251953125 81.056213671875 208.3053585937501 81.2187193359375 206.6825865234376 81.536865234375C203.8055419921876 82.0976255859375 200.5805970703125 82.614898828125 196.4767453125001 82.614898828125C194.0803529296875 82.614898828125 191.6015625 82.4089048828125 189.109039453125 81.996917578125C184.0118408203126 81.1454771484375 179.6836851562501 78.09219375 175.10147109375 74.851226953125C168.4432980468751 70.1408384765625 161.569976953125 65.281676953125 150.8560183593751 65.281676953125C150.3890988281251 65.281676953125 149.9336244140625 65.297698828125 149.4735714843751 65.318298046875C149.1806027343751 65.293121484375 148.8761900390625 65.281676953125 148.57177734375 65.281676953125C137.86239609375 65.281676953125 130.9890750000001 70.1385498046875 124.342346484375 74.8420716796875C119.753265234375 78.0830384765625 115.4205322265625 81.1454771484375 110.316467578125 81.996917578125C107.826233203125 82.4089048828125 105.3474427734375 82.614898828125 102.955627734375 82.614898828125C98.63662734375 82.614898828125 95.23544296875 81.9488525390625 92.747497265625 81.463623046875C91.23916640625 81.168365625 89.9345396484375 80.914306640625 88.9434814453125 80.914306640625C87.908935546875 80.914306640625 86.789703515625 81.138610546875 86.302184765625 82.802581640625C85.878753515625 84.246826171875 85.5743408203125 85.64071640625 85.276794140625 86.995696875C84.51690703125 90.4701234375 83.9790345703125 92.6078794921875 82.52334609375 92.832183984375C65.538024609375 95.45516953125 60.6742857421875 99.0348814453125 59.5916748046875 101.573180859375C59.4406125 101.934814453125 59.349059765625 102.301025390625 59.33074921875 102.6580810546875C59.275817578125 103.635406640625 59.96475234375 104.498291015625 60.9306333984375 104.6539306640625C87.0391845703125 108.95233125 98.748779296875 135.642242578125 99.2362974609375 136.7752078125C99.24774140625 136.802673046875 99.261474609375 136.834716796875 99.277496484375 136.8644712890625C100.87509140625 140.1031494140625 101.186370703125 142.91610703125 100.211334375 145.220947265625C98.419189453125 149.4415283203125 92.57354765625 151.2977601562499 88.7054443359375 152.5245667968749C87.7601625 152.8266908203124 86.862945703125 153.1082156249999 86.15341171875 153.3897398437499C78.4332275390625 156.4407351562499 77.7923583984375 159.5718386718749 78.09677109375 161.1671449218749C78.6140443359375 163.8885498046875 82.248687890625 165.7859800781249 85.1898193359375 165.7859800781249C85.9931947265625 165.7859800781249 86.702728125 165.6417843749999 87.30011015625 165.362548828125C90.7745361328125 163.7374874999999 93.9033509765625 162.9112242187499 96.6064453125 162.9112242187499C100.33721953125 162.9112242187499 101.966858203125 164.4790652343749 102.1659849609375 164.68505859375C102.067565625 166.4520263671875 101.950836328125 168.2991029296874 101.8318177734375 170.2056884765625C101.05361953125 182.5469970703125 100.087737890625 197.8889466796874 103.9970396484375 206.6436767578125C115.70205703125 232.887268359375 140.5220033203125 234.92889375 147.8530886718751 234.92889375C148.040771484375 234.92889375 151.0665890625001 234.9609375 151.0665890625001 234.9609375H151.499176171875C158.8439941406251 234.9609375 183.7234500000001 232.9193115234375 195.4330441406251 206.6596986328124C199.3400572265626 197.900390625 198.374176171875 182.5469970703125 197.5959779296875 170.2125550781249L197.5616455078125 169.6746826171875C197.4540708984375 167.9580691406249 197.348785546875 166.2895201171874 197.26181015625 164.6896359374999C197.4494935546875 164.4973757812499 198.948669140625 163.0577085937499 202.329254296875 162.92724609375H202.33154296875C204.9064634765625 163.0256654296874 207.859039453125 163.8473507812499 211.102294921875 165.362548828125C212.049866015625 165.8088685546874 213.1072998046875 165.9027099609375 213.8236998046875 165.9027099609375C214.924621875 165.9027099609375 216.0346986328125 165.6875613281249 216.957092578125 165.3053285156249L217.0166015625 165.2801513671875C219.6372984375 164.3508914062499 221.356201171875 162.5152587890625 221.392822265625 160.5926513671875C221.4271546875 158.7844851562499 220.0447083984375 156.0653683593749 213.2743833984375 153.3897398437499C212.571716015625 153.11279296875 211.67449921875 152.8289794921875 210.72235078125 152.52685546875C206.849670703125 151.300048828125 201.00860625 149.4415283203125 199.216461328125 145.2232359375C198.2391357421875 142.91610703125 198.5504150390625 140.10772734375 200.15029921875 136.86904921875C200.1640318359375 136.83700546875 200.1800537109375 136.8072509765625 200.193786328125 136.7752078125C200.67901640625 135.642242578125 212.3748779296875 108.961487109375 238.499450390625 104.6562193359375C239.463043359375 104.498291015625 240.1542662109375 103.635406640625 240.0993345703125 102.662658984375C240.0787353515626 102.296448046875 239.9894712890625 101.9279478515625 239.833831640625 101.568603515625zM239.833831640625 101.568603515625" />
    <glyph glyph-name="026-snapchat-1"
      unicode="&#xF11A;"
      horiz-adv-x="300" d="M294.1192555901058 80.6029970154851C254.0111255215089 87.2033064049877 235.9352782161664 128.2864821788522 235.2039939372158 130.0303139209651C235.1477413003735 130.1428191946498 235.1102395424786 130.2553244683345 235.0352360266888 130.3678297420192C232.9913902214166 134.5305248683532 232.5038673687829 137.9619357157367 233.62892010563 140.5683078894323C235.8227729424817 145.7060487210339 244.2231667109396 148.3686735315718 249.773426879385 150.1312561526322C251.3860024688658 150.6375298842133 252.9048236636093 151.1250527368471 254.1611325530885 151.6125755894808C259.636389205744 153.7689266684376 263.5365720268138 156.112786536869 266.124193321562 158.7566604684595C269.1993374689439 161.9255590105787 269.7993655952623 164.9632014000657 269.7618638373674 166.932043689548C269.6681094426302 171.7322687000954 265.9929371689298 176.0074691001141 260.1239120583778 178.0888166632811C258.1550697688955 178.8951044580215 255.8862134162539 179.3263746738128 253.598606184665 179.3263746738128C252.0422832320266 179.3263746738128 249.7171742425427 179.1201150053909 247.523321405691 178.0888166632811C242.8356016688283 175.8949638264294 238.6354047845994 174.6949075737925 235.0164851477414 174.5261496632655C233.1038954951014 174.6199040580027 231.753832210885 175.0324233948467 230.8725409003548 175.4261918527431C230.9850461740395 177.3012797474882 231.0975514477242 179.2326202790756 231.2288076003563 181.2202134475054L231.2850602371987 182.0827538790881C232.5788708845728 202.3899557791772 234.1726955951061 227.6473897213932 227.4598809319187 242.6480928793538C222.8659155897933 252.9235745425567 216.696876416082 261.755238526806 209.1027704423646 268.9180742847322C202.7462224791788 274.9183555479164 195.3583761738832 279.7935840742535 187.1454911948998 283.393752832164C172.8760723158899 289.6940481585075 159.5629482631999 290.63159210588 152.8876353579075 290.63159210588H152.8688844789601C152.6063721736958 290.63159210588 152.3626107473789 290.63159210588 152.1376002000095 290.63159210588C150.2812631842119 290.6128412269325 147.2623716736723 290.5753394690377 146.9811084894605 290.5753394690377C140.3245464631155 290.5753394690377 126.9926715314781 289.6377955216651 112.6857508945733 283.3375001953217C104.4916167945373 279.7373314374112 97.1412722471367 274.8808537900215 90.8034751628984 268.8805725268373C83.2468709470757 261.7177367689111 77.0965826523119 252.9048236636093 72.521368189134 242.6668437583012C65.8085535259466 227.6848914792882 67.4023782364799 202.4274575370721 68.6774380049066 182.1390065159305V182.1015047580356C68.8086941575387 179.9264028001313 68.9587011891183 177.6575464474897 69.0899573417505 175.4449427316906C68.114911636483 175.0136725158992 66.5210869259497 174.5261496632655 64.1772270575184 174.5261496632655C60.3895495101334 174.5261496632655 55.8893385627452 175.7262059159023 50.8078503679861 178.1075675422285C49.30778005219 178.8013500632842 47.601450067972 179.1576167632858 45.7263621732269 179.1576167632858C42.7074706626874 179.1576167632858 39.5010703626733 178.2763254527556 36.7446911573981 176.6449989843274C33.2570276731723 174.6011531790553 31.0069221994782 171.7322687000953 30.3881431942123 168.5258684000813C29.9943747363158 166.4257699579668 30.0131256152633 162.2443239526853 34.6633435942311 158.0066253105615C37.2322140100318 155.6815163210776 40.9823897995219 153.5251652421207 45.8388674469117 151.6125755894808C47.1139272153383 151.1063018578996 48.6327484100818 150.6375298842133 50.2265731206151 150.1312561526322C55.7768332890605 148.3686735315718 64.1959779364659 145.7060487210338 66.3898307733176 140.5683078894323C67.4961326312172 137.9619357157367 67.0086097785835 134.5305248683532 64.9647639733113 130.3678297420192C64.908511336469 130.2553244683344 64.8522586996266 130.1428191946497 64.8147569417317 130.030313920965C64.2897323312031 128.8302576683282 59.5082581996032 118.0485022735441 49.7015485100865 106.6667187524415C44.1325374626936 100.197665515571 38.0010000468773 94.7786614997578 31.4756941731644 90.5784646155288C23.5065706204979 85.4407237839273 14.8999171836181 82.1030673312811 5.8807444098943 80.6217478944325C2.3368282888261 80.0404706470615 -0.1945403690797 76.8903229838898 0.0117192993422 73.3089051049267C0.0679719361846 72.277606762817 0.3117333625014 71.2463084207072 0.7430035782928 70.2525118364923V70.2337609575448C2.1868212572465 66.8773536259512 5.5057268309453 64.0459709048861 10.9059799678111 61.5521040048752C17.5062893573137 58.4957107364407 27.3692516836727 55.92684032064 40.2511055205714 53.9204962732628C40.9073862837321 52.682938262731 41.5824179258403 49.5890432364017 42.0511898995266 47.4701939153397C42.5387127521603 45.2200884416457 43.0449864837415 42.8949794521618 43.7762707626921 40.4386143100458C44.563807678485 37.7759894995078 46.5889026048097 34.5883400784412 51.8203978311484 34.5883400784412C53.8079909995782 34.5883400784412 56.0768473522197 35.03836117318 58.7207212838103 35.5446349047612C62.5834023469851 36.2946700626591 67.8711502101662 37.325968404769 74.4527087207214 37.325968404769C78.1091301154743 37.325968404769 81.8968076628593 37.0072034626623 85.7032360891918 36.369673578449C93.0535806365924 35.1508664468647 99.3913777208307 30.6881572573714 106.7229713892839 25.512914667875C117.4484741472257 17.937559573105 129.5990437051738 9.36840789412 148.1624138631499 9.36840789412C148.6686875947311 9.36840789412 149.1749613263123 9.3871587730674 149.6812350578934 9.4246605309623C150.2812631842119 9.3871587730674 151.0500492210573 9.36840789412 151.8375861368502 9.36840789412C170.4009562948264 9.36840789412 182.5515258527744 17.937559573105 193.2770286107162 25.4941637889276L193.2957794896637 25.512914667875C200.6273731581169 30.669406378424 206.9651702423552 35.1321155679172 214.3155147897559 36.3509226995015C218.1219432160884 36.9884525837148 221.9096207634734 37.3072175258214 225.5660421582263 37.3072175258214C231.8663374845697 37.3072175258214 236.8540712845916 36.5009297310811 241.2980295951374 35.6383892994983C244.2044158319922 35.0758629310748 246.4545213056863 34.7945997468631 248.1983530477993 34.7945997468631H248.3671109583263H248.5358688688534C252.3610481741333 34.7945997468631 255.1736800162509 36.8946981889775 256.2424801162556 40.5511195837304C256.9550135162587 42.9699829679515 257.4612872478399 45.2200884416457 257.967560979421 47.5264465521821C258.3988311952124 49.5140397206118 259.1113645952156 52.7016891416785 259.7488944794289 53.9392471522102C272.6307483163275 55.9643420785349 282.4937106426866 58.5144616153882 289.0940200321891 61.5708548838226C294.4755222901075 64.0647217838335 297.7944278638062 66.8961045048986 299.23824554276 70.2337609575448C299.6695157585513 71.2275575417597 299.9320280638157 72.2588558838695 299.988280700658 73.3276559838742C300.1945403690798 76.8715721049424 297.663171711174 80.0404706470616 294.1192555901058 80.6029970154851z" />
    <glyph glyph-name="027-pinterest"
      unicode="&#xF11B;"
      horiz-adv-x="300" d="M154.0780152233401 300C71.8555716370072 300 28.1286073397828 247.3101330723841 28.1286073397828 189.8575521947275C28.1286073397828 163.2126052537516 43.0167761442409 129.9861126574045 66.8490967367675 119.4481392718813C70.4680093051055 117.8168159897808 72.43684774902 118.5105971557316 73.2431339689088 121.8669979315477C73.9556659771826 124.417112487475 77.0870566451227 136.6989142090367 78.6058748732853 142.4929244868422C79.0746459313602 144.3492578768187 78.8308849811613 145.9618303165962 77.3308175953217 147.7056586526348C69.4179621350178 156.8560697062563 63.1364299568145 173.5255685313989 63.1364299568145 189.1637710287767C63.1364299568145 229.234321073017 94.994111063583 268.1423188932315 149.2027962193614 268.1423188932315C196.0799020268489 268.1423188932315 228.8751252497671 237.6909509606877 228.8751252497671 194.1327442443704C228.8751252497671 144.9117831465085 202.8302052631271 110.8602534879497 168.9849348701212 110.8602534879497C150.2528433894492 110.8602534879497 136.3022167011409 125.5609138691777 140.7274154893677 143.7492309224829C146.0714055514213 165.4064538055421 156.5531264099755 188.6949999707018 156.5531264099755 204.3144516257566C156.5531264099755 218.3213308410339 148.6402709496716 229.9093513966448 132.4770448672499 229.9093513966448C113.407438224764 229.9093513966448 97.9379933082932 211.0272531773889 97.9379933082932 185.6761143566996C97.9379933082932 169.5691408012469 103.6382493744837 158.6936522539099 103.6382493744837 158.6936522539099S84.7749019975507 82.4902290532582 81.2684944831506 68.258339730105C75.3432283090842 44.1635073450565 82.0747807030394 5.1430044709039 82.6560568150523 1.7866036950878C83.0123228191892 -0.0697296948887 85.0936663170416 -0.6510058069015 86.2562185410673 0.8678124212611C88.1125519310438 3.3054219232504 110.9135761958057 35.8381333536468 117.307613427947 59.3516896266824C119.6327178759984 67.9208245682912 129.1768966184028 102.6661353928008 129.1768966184028 102.6661353928008C135.4584287966061 91.3218757873889 153.5904933229423 81.8151987296304 172.9038609156271 81.8151987296304C230.3564417932837 81.8151987296304 271.8708066963946 132.3112171054559 271.8708066963946 194.9765321489051C271.6645474308417 255.0542309517811 220.2497377811894 300 154.0780152233401 300z" />
    <glyph glyph-name="028-pinterest-1"
      unicode="&#xF11C;"
      horiz-adv-x="300" d="M259.0909090909091 300H40.9090909090909A40.9090909090909 40.9090909090909 0 0 1 0 259.0909090909091V40.9090909090909A40.9090909090909 40.9090909090909 0 0 1 40.9090909090909 0H259.0909090909091A40.9090909090909 40.9090909090909 0 0 1 300 40.9090909090909V259.0909090909091A40.9090909090909 40.9090909090909 0 0 1 259.0909090909091 300zM164.4715909090909 108.2386363636364C152.8295454545455 108.2386363636364 141.9034090909091 114.5284090909091 138.1534090909091 121.6704545454545C138.1534090909091 121.6704545454545 131.8977272727273 96.8522727272727 130.5852272727273 92.0625C125.9147727272728 75.1534090909091 112.2102272727273 58.2102272727273 111.1363636363637 56.8295454545454A1.4318181818182 1.4318181818182 0 0 0 108.5795454545455 57.4431818181818C108.2897727272728 59.5909090909091 104.7954545454546 80.9488636363636 108.9034090909091 98.3522727272727L122.7272727272728 157.0568181818182A41.3181818181818 41.3181818181818 0 0 0 119.3181818181819 174.1022727272727C119.3181818181819 190.0568181818182 128.5738636363637 201.9715909090909 140.096590909091 201.9715909090909C149.8806818181819 201.9715909090909 154.6193181818183 194.625 154.6193181818183 185.7954545454545C154.6193181818183 175.9602272727273 148.346590909091 161.2329545454545 145.1079545454546 147.5795454545454C142.3977272727273 136.1590909090909 150.8352272727273 126.8352272727272 162.1534090909092 126.8352272727272C182.6079545454546 126.8352272727272 196.2443181818183 153.0511363636363 196.2443181818183 184.1079545454545C196.2443181818183 207.6988636363636 180.3579545454546 225.375 151.4318181818183 225.375C118.7727272727273 225.375 98.4034090909092 201.0170454545454 98.4034090909092 173.8636363636363C98.4034090909092 164.4715909090909 101.1818181818183 157.8579545454545 105.5113636363637 152.7443181818182C107.5056818181819 150.3920454545455 107.7954545454546 149.4375 107.0625000000001 146.7443181818182C106.5511363636364 144.75 105.3579545454546 139.9261363636364 104.8636363636364 138.1022727272727A3.6818181818182 3.6818181818182 0 0 0 99.4772727272728 135.4090909090909C84.4261363636364 141.4772727272727 77.4204545454546 157.9602272727272 77.4204545454546 176.4715909090909C77.4204545454546 207.0681818181818 103.2272727272728 243.75 154.3977272727273 243.75C195.5113636363637 243.75 222.5795454545455 214.0056818181818 222.5795454545455 182.0625C222.5795454545455 139.7727272727272 199.0909090909092 108.2386363636363 164.471590909091 108.2386363636363z" />
    <glyph glyph-name="029-meetup"
      unicode="&#xF11D;"
      horiz-adv-x="300" d="M143.0921052631579 234.4736842105263C130.8552631578947 233.6842105263158 114.4736842105263 256.9736842105263 87.0394736842105 245.921052631579C60.7894736842105 235.4605263157895 58.6184210526316 215.5263157894737 30 122.171052631579C23.2894736842105 100.2631578947369 15.7894736842105 83.8815789473684 29.0131578947368 67.1052631578948C40.2631578947368 53.2894736842106 60 49.3421052631579 75.7894736842105 57.8289473684211C90 64.9342105263158 101.0526315789474 110.921052631579 131.8421052631579 185.7236842105263C136.5789473684211 195.3947368421053 155.3289473684211 194.2105263157895 152.5657894736842 175.2631578947369C152.5657894736842 168.9473684210526 123.5526315789474 99.671052631579 123.5526315789474 96.3157894736843C120 71.8421052631579 152.1710526315789 69.4736842105264 162.0394736842105 92.171052631579C163.0263157894737 93.1578947368421 167.1710526315789 102.6315789473684 175.4605263157895 119.2105263157895C216.3157894736842 200.921052631579 200.921052631579 169.1447368421053 212.7631578947369 193.0263157894737C216.9078947368421 198.1578947368422 221.0526315789474 201.5131578947369 224.2105263157895 201.5131578947369C229.3421052631579 201.5131578947369 232.5 197.3684210526316 231.5131578947369 190.0657894736843C231.5131578947369 181.7763157894737 200.7236842105263 126.9078947368422 192.0394736842106 100.6578947368422C187.6973684210527 78.7500000000001 199.1447368421053 59.2105263157896 217.8947368421053 48.7500000000001C223.8157894736842 44.8026315789474 259.5394736842105 38.2894736842106 270.7894736842105 46.7763157894738C282.6315789473685 50.7236842105264 279.2763157894737 67.6973684210527 269.8026315789474 69.671052631579C259.5394736842105 74.8026315789475 254.4078947368421 70.4605263157896 240.7894736842106 75.9868421052632C210.7894736842106 88.0263157894737 277.8947368421053 187.1052631578948 273.9473684210527 218.4868421052632C270.7894736842105 238.2236842105264 260.5263157894737 247.6973684210527 239.6052631578948 248.6842105263159C227.171052631579 248.6842105263159 225.9868421052632 243.1578947368422 219.8684210526316 243.7500000000001S201.3157894736843 258.5526315789474 183.5526315789474 258.3552631578948C165.7894736842106 257.5657894736843 152.7631578947369 235.0657894736843 143.0921052631579 234.4736842105264z" />
    <glyph glyph-name="030-meetup-1"
      unicode="&#xF11E;"
      horiz-adv-x="300" d="M259.0909090909091 300H40.9090909090909A40.9090909090909 40.9090909090909 0 0 1 0 259.0909090909091V40.9090909090909A40.9090909090909 40.9090909090909 0 0 1 40.9090909090909 0H259.0909090909091A40.9090909090909 40.9090909090909 0 0 1 300 40.9090909090909V259.0909090909091A40.9090909090909 40.9090909090909 0 0 1 259.0909090909091 300zM238.2272727272727 74.2329545454545C229.9602272727273 68.0284090909091 203.8465909090909 72.8863636363636 199.5511363636364 75.75C185.7102272727273 83.4545454545454 177.3920454545455 97.7386363636364 180.5965909090909 113.7443181818182C186.9715909090909 132.9204545454546 209.4034090909091 172.9772727272728 209.4034090909091 179.0965909090909C210.1704545454546 184.4147727272728 207.8863636363637 187.4488636363637 204.1022727272728 187.4488636363637C201.8181818181819 187.4488636363637 198.7840909090909 185.1818181818182 195.7670454545455 181.3806818181819C187.0227272727273 163.8579545454546 198.2386363636364 187.0909090909091 168.4943181818182 127.4147727272728C162.4261363636364 115.2613636363637 159.3920454545455 108.4261363636364 158.625 107.6590909090909C151.5170454545455 91.0397727272727 127.9431818181818 92.8125 130.5681818181819 110.7102272727273C130.5340909090909 113.2329545454545 151.7045454545455 163.9261363636364 151.7045454545455 168.4602272727273C153.6818181818182 182.3181818181818 140.0625 183.1193181818182 136.5340909090909 176.0625C114.0170454545455 121.4147727272727 105.8522727272727 87.7670454545454 95.625 82.5852272727272C83.8977272727273 76.7045454545454 69.5284090909091 79.0568181818182 61.5340909090909 89.403409090909C51.9545454545455 101.7272727272727 57.3920454545455 113.7443181818182 62.2840909090909 129.6818181818181C83.2159090909091 197.8636363636363 84.7670454545455 212.4034090909091 103.9943181818182 220.0227272727273C124.1079545454546 228.0852272727273 136.0056818181818 211.125 144.9034090909091 211.6704545454545C151.9431818181818 212.0795454545454 161.4715909090909 228.5113636363637 174.4943181818182 228.7159090909091S196.6534090909091 218.4886363636363 201.0340909090909 217.9602272727273S206.4545454545455 221.5909090909091 215.4886363636364 221.5909090909091C230.6420454545455 220.8409090909091 238.2443181818182 214.0056818181818 240.5113636363637 199.5511363636363C243.3579545454546 176.7443181818181 194.3181818181818 104.2840909090909 216.2386363636364 95.4545454545454C226.1931818181819 91.4659090909091 229.875 94.6875 237.4772727272728 90.9034090909091C244.4318181818182 89.5568181818182 246.8522727272728 77.1136363636364 238.2272727272727 74.2329545454545z" />
    <glyph glyph-name="032-medium-1"
      unicode="&#xF11F;"
      horiz-adv-x="300" d="M267.5834326637391 0H32.4165673362609C14.5136841858841 0 0 14.5136841858841 0 32.4165673362609V267.5834326637391C0 285.486315814116 14.5136841858841 300 32.4165673362609 300H267.5828474109391C285.4863158141159 300 299.9994147472001 285.486315814116 299.9994147472001 267.5834326637391V32.4171525890608C300 14.5136841858841 285.4863158141159 0 267.5834326637391 0zM267.5834326637391 0H32.4165673362609C14.5136841858841 0 0 14.5136841858841 0 32.4165673362609V267.5834326637391C0 285.486315814116 14.5136841858841 300 32.4165673362609 300H267.5828474109391C285.4863158141159 300 299.9994147472001 285.486315814116 299.9994147472001 267.5834326637391V32.4171525890608C300 14.5136841858841 285.4863158141159 0 267.5834326637391 0zM164.5830366426778 150.0002926264C164.5830366426778 114.2963603128372 135.8365896148841 85.3526830914614 100.3755372132993 85.3526830914614C64.9150700645143 85.3526830914614 36.1680377839207 114.2963603128372 36.1680377839207 150.0002926264S64.9144848117144 214.6479021613386 100.3755372132993 214.6479021613386C135.8360043620842 214.6479021613386 164.5830366426778 185.7042249399629 164.5830366426778 150.0002926264M235.0199668746915 150.0002926264C235.0199668746915 116.3909800838473 220.6467433607947 89.1457064879175 202.9165097864022 89.1457064879175S170.8130526981129 116.3909800838473 170.8130526981129 150.0002926264S185.1862762120098 210.8548787648825 202.9165097864022 210.8548787648825S235.0199668746916 183.6090199161528 235.0199668746916 150.0002926264M263.8313769632793 150.0002926264C263.8313769632793 119.8878655635302 258.7759632773376 95.4769712777435 252.540094693903 95.4769712777435S241.2493976773267 119.8878655635302 241.2493976773267 150.0002926264S246.3042261104684 204.5236139750566 252.540094693903 204.5236139750566C258.7765485301375 204.5236139750566 263.8313769632793 180.1127196892698 263.8313769632793 150.0002926264" />
    <glyph glyph-name="033-twitch"
      unicode="&#xF120;"
      horiz-adv-x="300" d="M28.125 300L9.375 243.75V37.5H84.375V0H121.875L159.375 37.5H215.625L290.625 117.375V300H28.125zM271.875 131.25L219.375 75H152.8875L112.5 45.61875V75H46.875V281.25H271.875V131.25zM140.625 225H159.375V150H140.625V225zM196.875 225H215.625V150H196.875V225z" />
    <glyph glyph-name="034-twitch-1"
      unicode="&#xF121;"
      horiz-adv-x="300" d="M88.7386363636364 227.4545454545455V109.2443181818182H125.5056818181818V84.8181818181818L150 109.2443181818182H194.9318181818182L223.5340909090909 137.7784090909091V227.4545454545455zM150 145.9090909090909H133.6704545454545V194.8295454545455H150zM194.9147727272727 145.9090909090909H178.5681818181818V194.8295454545455H194.9147727272727zM259.0909090909091 300H40.9090909090909A40.9090909090909 40.9090909090909 0 0 1 0 259.0909090909091V40.9090909090909A40.9090909090909 40.9090909090909 0 0 1 40.9090909090909 0H259.0909090909091A40.9090909090909 40.9090909090909 0 0 1 300 40.9090909090909V259.0909090909091A40.9090909090909 40.9090909090909 0 0 1 259.0909090909091 300zM239.846590909091 129.5454545454545L190.9090909090909 80.7102272727273H154.0738636363637L129.5454545454546 56.25H105.0681818181818V80.7102272727273H60.1534090909091V211.125L72.3920454545455 243.75H239.846590909091z" />
    <glyph glyph-name="035-quora"
      unicode="&#xF122;"
      horiz-adv-x="300" d="M246.9 81.6S245.7 64.5 230.1 64.5C218.1 64.5 209.7 73.8 201.9 85.8C223.8 105 237.9 133.5 237.9 165.6C237.9 223.2 192.6 270 136.5 270S35.1 223.2 35.1 165.6S80.4 61.2 136.5 61.2C146.7 61.2 156.6 62.7 165.6 65.7C177.3 46.8 192.3 30 215.7 30C263.1 30 264.9 81.6 264.9 81.6zM136.5 78C103.8 78 77.4 117 77.4 165.3S103.8 252.6 136.5 252.6S195.6 213.6 195.6 165.3C195.6 146.1 191.4 128.4 184.2 114C176.1 125.4 166.5 135.3 152.7 138.3C128.4 143.7 107.4 132.9 100.5 127.2L106.8 114.3S113.1 117.9 128.7 114.3C138.6 111.9 146.4 98.4 155.1 82.5C149.7 79.8 143.1 78 136.5 78z" />
    <glyph glyph-name="036-quora-1"
      unicode="&#xF123;"
      horiz-adv-x="300" d="M185.6420454545455 162.0852272727273A91.6875 91.6875 0 0 0 176.8295454545455 121.9943181818182C170.5568181818182 130.9431818181818 163.0397727272727 138.5454545454545 152.3011363636364 140.9829545454546C151.5170454545455 141.1534090909091 150.7670454545454 141.3068181818182 150 141.4261363636364C131.9147727272727 144.5795454545455 116.6079545454545 136.5170454545455 111.6136363636363 132.4090909090909L116.5056818181818 122.3181818181818S121.4488636363636 125.1647727272727 133.7215909090909 122.3181818181818C139.7897727272727 120.9034090909091 144.8011363636363 114 150 105.1193181818182C151.4147727272727 102.6988636363636 152.8636363636363 100.1420454545454 154.3295454545454 97.4829545454545A34.0909090909091 34.0909090909091 0 0 0 150 95.6761363636364A31.6363636363636 31.6363636363636 0 0 0 139.4488636363636 93.8693181818182C113.8806818181818 93.8693181818182 93.2556818181818 124.4147727272727 93.2556818181818 162.0511363636364S113.9318181818182 230.2329545454546 139.4488636363636 230.2329545454546A32.0454545454545 32.0454545454545 0 0 0 150 228.409090909091C170.4545454545455 221.4545454545455 185.6420454545454 194.3181818181818 185.6420454545454 162.0852272727273zM259.0909090909091 300H40.9090909090909A40.9090909090909 40.9090909090909 0 0 1 0 259.0909090909091V40.9090909090909A40.9090909090909 40.9090909090909 0 0 1 40.9090909090909 0H259.0909090909091A40.9090909090909 40.9090909090909 0 0 1 300 40.9090909090909V259.0909090909091A40.9090909090909 40.9090909090909 0 0 1 259.0909090909091 300zM201.2386363636364 56.25C183.0511363636364 56.25 171.4261363636364 69.3238636363636 162.2897727272727 83.8636363636364A77.7954545454546 77.7954545454546 0 0 0 139.4488636363636 80.4545454545455C95.6931818181818 80.4545454545455 60.2215909090909 117.0170454545455 60.2215909090909 162.1363636363636S95.6931818181818 243.75 139.4488636363636 243.75A79.6704545454546 79.6704545454546 0 0 0 150 243.034090909091C188.7613636363636 237.7159090909091 218.6761363636363 203.4886363636364 218.6761363636363 162.0852272727273A82.5170454545454 82.5170454545454 0 0 0 190.6022727272727 99.7329545454546C196.653409090909 90.375 203.0965909090909 83.1647727272728 212.5568181818181 83.1647727272728C224.7954545454545 83.1647727272728 225.6988636363636 96.6136363636364 225.6988636363636 96.6136363636364H239.7784090909091S238.2443181818182 56.25 201.2386363636363 56.25z" />
    <glyph glyph-name="037-vimeo"
      unicode="&#xF124;"
      horiz-adv-x="300" d="M172.1400516785772 210.4659860823303C206.3018177343846 230.978045393556 224.7139221618286 202.0661665472031 207.2017983988625 169.385618668349C189.6521754415432 136.5738236092584 173.5462714668239 115.1805332307314 165.2027007232266 115.1805332307314C157.0091267570423 115.1805332307314 150.5217661339307 137.192560316087 140.9219723794996 175.404239362045C131.0784338617725 214.9846390018964 131.0784338617725 286.3456058561242 89.904318461908 278.245779875823C50.9801547232384 270.5584450334075 0 209.6222542093822 0 209.6222542093822L12.1122397760986 193.6663470120759C12.1122397760986 193.6663470120759 37.2366999927736 213.4846712277666 45.5990203335475 203.6223831128628C54.0738382573812 193.6663470120759 86.1543990265834 74.1189154139267 96.7666710285521 52.0131403426879C106.028972033804 32.6448064592362 131.7346697629543 7.0891055074989 159.8215663335358 25.3137139631766C188.17095726459 43.650820001914 281.7501967731162 123.5616031686819 298.5123366490173 218.1158217303925C315.2369773305652 312.5012939175135 185.7147600344524 292.7392184933527 172.1400516785772 210.4659860823303z" />
    <glyph glyph-name="038-vimeo-1"
      unicode="&#xF125;"
      horiz-adv-x="300" d="M272.1647727272727 300H27.8352272727272A27.8352272727273 27.8352272727273 0 0 1 0 272.1647727272728V27.8352272727273A27.8352272727273 27.8352272727273 0 0 1 27.8352272727272 0H272.1647727272727A27.8352272727273 27.8352272727273 0 0 1 300 27.8352272727273V272.1647727272728A27.8352272727273 27.8352272727273 0 0 1 272.1647727272727 300zM243.75 190.0738636363636C242.9488636363636 172.3977272727273 230.3352272727273 148.1079545454545 206.7954545454545 117.4772727272727C183.8522727272727 87.7329545454546 165.5454545454545 73.0909090909091 150 69.8863636363636A31.9602272727273 31.9602272727273 0 0 0 143.7272727272727 69.2556818181818C127.5852272727272 69.2556818181818 111.8693181818182 114.4602272727273 101.5056818181818 152.4034090909091C96.0852272727272 171.9375 91.5170454545454 180.1363636363636 86.2670454545454 179.8806818181818C81.4261363636363 179.7272727272728 75 175.1761363636364 68.1818181818182 170.3522727272728L67.9772727272727 170.1818181818182A4.9943181818182 4.9943181818182 0 0 0 61.1590909090909 171.2045454545455L57.2727272727273 176.2159090909091A5.1136363636364 5.1136363636364 0 0 0 57.9545454545454 183.0340909090909L61.2102272727272 185.7954545454546C82.1590909090909 204.0511363636364 107.6761363636363 225 119.1136363636364 225C134.1306818181818 225 136.4488636363636 216.7840909090909 141.0681818181818 200.4375C141.2897727272727 199.6534090909091 145.3806818181818 181.5681818181819 150 163.5852272727273S159.8181818181818 127.5 162.0511363636364 127.5C163.3977272727273 127.5 168.0681818181818 133.4659090909091 176.5056818181818 146.7102272727273C183.4431818181818 157.6193181818182 189.0340909090909 167.8977272727273 190.1420454545455 171.75C191.4204545454545 176.3011363636364 191.1988636363636 179.7954545454546 189.4261363636364 182.1136363636364C187.125 185.0965909090909 182.5056818181818 185.7954545454546 178.9772727272727 185.7954545454546A29.7954545454545 29.7954545454545 0 0 1 171.0170454545455 184.6704545454546A3.8181818181818 3.8181818181818 0 0 0 166.4318181818182 189.6818181818182C175.8068181818182 215.3693181818182 192.6136363636364 228.034090909091 216.3920454545455 227.1818181818182C224.8125 226.9261363636364 231.375 224.3352272727273 235.9090909090909 219.4261363636364C241.6875 213.3068181818182 244.2784090909091 203.4204545454546 243.75 190.0738636363636z" />
    <glyph glyph-name="039-zoom"
      unicode="&#xF126;"
      horiz-adv-x="300" d="M150 300C232.845703125 300 300 232.845703125 300 150S232.845703125 0 150 0S0 67.154296875 0 150S67.154296875 300 150 300zM76.93359375 185.654296875V132.140625C76.98046875 120.03515625 86.865234375 110.296875 98.91796875 110.349609375H176.9296875C179.14453125 110.349609375 180.92578125 112.130859375 180.92578125 114.298828125V167.818359375C180.87890625 179.91796875 170.994140625 189.65625 158.94140625 189.609375H80.935546875C78.71484375 189.609375 76.93359375 187.822265625 76.93359375 185.654296875zM185.89453125 164.77734375L218.103515625 188.30859375C220.8984375 190.623046875 223.06640625 190.04296875 223.06640625 185.84765625V114.10546875C223.06640625 109.3359375 220.41796875 109.91015625 218.103515625 111.650390625L185.89453125 135.12890625z" />
    <glyph glyph-name="040-down-arrow"
      unicode="&#xF127;"
      horiz-adv-x="300" d="M296.081927767318 224.1111536448364C290.6674062326665 229.8543784130059 281.6101966360164 230.0682405881112 275.8956821324501 224.668367147645L149.9923829910237 105.3942095107146L24.1037319437826 224.6677812238776C18.3892174402162 230.0823027585291 9.346070013984 229.8537924892385 3.9174863089146 224.110567721069C-1.5110973961548 218.3819910470849 -1.2685249564463 209.3388436208526 4.4606376413053 203.9102599157832L140.1781598868777 75.3357343187269C142.9208690421319 72.7354046389538 146.4639500636704 71.4211776286493 149.9923829910237 71.4211776286493C153.520815918377 71.4211776286493 157.0779591103334 72.7354046389538 159.8212541893549 75.3357343187269L295.5387764349274 203.9102599157832C301.267939032679 209.33942954462 301.5105114723874 218.3819910470848 296.081927767318 224.1111536448364z" />
    <glyph glyph-name="041-upload"
      unicode="&#xF128;"
      horiz-adv-x="300" d="M160.6996491373762 227.9768306101688C154.8699316959744 233.8065480515706 145.1300683040256 233.8065480515706 139.2854028691843 227.9768306101688L4.4283430564494 93.4648203126622C-1.4761143521498 87.5603629040629 -1.4761143521498 77.9849274399485 4.4283430564494 72.0954180247888C10.3328004650487 66.1909606161895 19.9231839226026 66.1909606161895 25.8276413312019 72.0954180247888L149.99937716694 195.9221043452987L274.1561650092387 72.0804700313493C280.0755704112775 66.17601262275 289.6510058753919 66.17601262275 295.5704112774307 72.0804700313493C301.4748686860299 77.9849274399485 301.4748686860299 87.5603629040629 295.5704112774307 93.4498723192227L160.6996491373762 227.9768306101688z" />
    <glyph glyph-name="042-arrow-up"
      unicode="&#xF129;"
      horiz-adv-x="300" d="M261.6 84.6C259.14 84.6 256.68 85.53 254.805 87.405L150 192.225L45.195 87.42C41.445 83.67 35.37 83.67 31.62 87.42S27.87 97.245 31.62 100.995L143.22 212.595C146.97 216.345 153.045 216.345 156.795 212.595L268.395 100.995C272.145 97.245 272.145 91.17 268.395 87.42C266.52 85.53 264.06 84.6 261.6 84.6z" />
    <glyph glyph-name="043-down-arrow-1"
      unicode="&#xF12A;"
      horiz-adv-x="300" d="M150 93.75C147.60234375 93.75 145.20234375 94.66640625 143.371875 96.496875L49.621875 190.246875C45.95859375 193.91015625 45.95859375 199.8421875 49.621875 203.503125S59.2171875 207.16640625 62.878125 203.503125L150 116.38125L237.121875 203.503125C240.78515625 207.16640625 246.7171875 207.16640625 250.378125 203.503125S254.04140625 193.9078125 250.378125 190.246875L156.628125 96.496875C154.79765625 94.66640625 152.39765625 93.75 150 93.75z" />
    <glyph glyph-name="045-next"
      unicode="&#xF12B;"
      horiz-adv-x="300" d="M227.5918844067016 158.2323897172277L88.8330514333929 296.6074351272066C84.2867801297651 301.1384721153433 76.9262620067891 301.1308549575978 72.3876078609068 296.5839977187589C67.8524693262917 292.0377264151312 67.8641880305155 284.6731067456768 72.4110452693544 280.1385541462729L202.9105355057207 149.9994140647888L72.4063577876649 19.8608599185159C67.8600864840372 15.3257213839008 67.8483677798134 7.9657891961359 72.3829203792173 3.418931957297C74.6581068042703 1.1396439857657 77.6387592235968 0 80.6194116429233 0C83.5924469045043 0 86.561380619607 1.1320268280202 88.8324654981817 3.3954945488495L227.5918844067015 141.7670243475612C229.7815242909208 143.9455314627678 231.0102304287874 146.9103636313921 231.0102304287874 149.9994140647889S229.7780086796536 156.0497810555428 227.5918844067016 158.2323897172277z" />
    <glyph glyph-name="046-right-arrow-1"
      unicode="&#xF12C;"
      horiz-adv-x="300" d="M217.7214817739121 232.2782032409867L204.3585538404034 218.9146453372756L263.8233311564363 159.4492380510402L0 159.4492380510402L0 140.5501319787574L263.8233311564363 140.5501319787574L204.3585538404034 81.0853546627245L217.7214817739121 67.7217967590133L300 150.0003149851012z" />
    <glyph glyph-name="047-left-arrow"
      unicode="&#xF12D;"
      horiz-adv-x="300" d="M300 159.4492380510402L36.1772988137661 159.4492380510402L95.6420761297991 218.9146453372756L82.2785182260879 232.2782032409867L0 150.0003149851012L82.2785182260879 67.7211667888109L95.6420761297991 81.0853546627245L36.1772988137661 140.5501319787574L300 140.5501319787574z" />
    <glyph glyph-name="048-left-arrow-1"
      unicode="&#xF12E;"
      horiz-adv-x="300" d="M97.0589826839827 149.9303300865801L227.4255952380953 280.2969426406927C231.9324945887446 284.8045183982684 231.9324945887446 292.1124188311689 227.4255952380953 296.6199945887446C222.9173430735931 301.1262175324676 215.610119047619 301.1262175324676 211.1025432900433 296.6199945887446L72.5744047619048 158.091856060606C68.0681818181818 153.5842803030303 68.0681818181818 146.2763798701299 72.5744047619048 141.7688041125541L211.1025432900433 3.2406655844155C215.6885822510823 -1.188446969697 222.9964826839827 -1.0612824675325 227.4255952380953 3.5247564935065C231.7458062770563 7.9985119047619 231.7458062770563 15.0906385281385 227.4255952380953 19.5637175324675L97.0589826839827 149.9303300865801z" />
    <glyph glyph-name="049-left-chevron"
      unicode="&#xF12F;"
      horiz-adv-x="300" d="M220.3988488421052 0.0011521312314L70.2532894736842 149.9993438025845L220.3988488421052 300L229.9169406315789 290.4937147329381L89.2845397894737 149.9993438025845L229.9169406315789 9.5074373982933zM220.3988488421052 0.0011521312314" />
    <glyph glyph-name="050-transfer"
      unicode="&#xF130;"
      horiz-adv-x="300" d="M294.9983646770237 65.4333605887163C294.9983646770237 69.6034341782502 291.6255110384301 72.9762878168438 287.4554374488962 72.9762878168438H30.6892886345053L75.8242027800491 118.1112019623876C78.7677841373671 121.0547833197056 78.7677841373671 125.7767784137367 75.8242027800491 128.7203597710548C72.880621422731 131.6639411283729 68.1586263286999 131.6639411283729 65.2150449713818 128.7203597710548L7.2632869991823 70.7686017988553C4.3197056418643 67.8250204415372 4.3197056418643 63.1030253475061 7.2632869991823 60.159443990188L65.2150449713818 2.2076860179885C66.6868356500409 0.7358953393295 68.5878986099755 -1e-13 70.5502861815209 -1e-13S74.4137367130008 0.7358953393295 75.8855273916599 2.2076860179885C78.8291087489779 5.1512673753066 78.8291087489779 9.8732624693376 75.8855273916599 12.8168438266558L30.7506132461161 57.9517579721995H287.5780866721178C291.6255110384301 57.9517579721995 294.9983646770237 61.2632869991823 294.9983646770237 65.4333605887163zM292.7906786590352 239.9018806214227L234.8389206868357 297.7923139820115C231.8953393295176 300.7358953393296 227.1733442354865 300.7358953393296 224.2297628781685 297.7923139820115S221.2861815208504 290.1267375306623 224.2297628781685 287.1831561733443L269.3646770237122 242.0482420278005H12.5372035977106C8.3671300081766 242.0482420278005 4.994276369583 238.6753883892069 4.994276369583 234.505314799673S8.3671300081766 226.9623875715454 12.5372035977106 226.9623875715454H269.3646770237122L224.2297628781685 181.9501226492232C221.2861815208504 179.0065412919051 221.2861815208504 174.2845461978741 224.2297628781685 171.340964840556C225.7015535568275 169.869174161897 227.6026165167621 169.1332788225675 229.5650040883075 169.1332788225675S233.4284546197875 169.869174161897 234.9002452984465 171.340964840556L292.852003270646 229.2927228127556C295.7342600163533 232.1749795584628 295.7342600163533 236.9582992641047 292.7906786590352 239.9018806214227z" />
    <glyph glyph-name="051-night-mode"
      unicode="&#xF131;"
      horiz-adv-x="300" d="M287.86875 115.115625A9.375 9.375 0 0 1 278.1 117.309375A125.840625 125.840625 0 0 0 117.309375 278.109375A9.375 9.375 0 0 1 105.346875 290.0906250000001A142.63125 142.63125 0 0 1 51.65625 256.125A144.58125 144.58125 0 0 1 256.125 51.6562500000001A142.63125 142.63125 0 0 1 290.090625 105.3562500000001A9.375 9.375 0 0 1 287.86875 115.1156250000001z" />
    <glyph glyph-name="052-brightness"
      unicode="&#xF132;"
      horiz-adv-x="300" d="M150 254.1796875C154.85390625 254.1796875 158.7890625 258.11484375 158.7890625 262.96875V291.2109375C158.7890625 296.06484375 154.85390625 300 150 300S141.2109375 296.06484375 141.2109375 291.2109375V262.96875C141.2109375 258.11484375 145.14609375 254.1796875 150 254.1796875zM150 45.8203125C145.14609375 45.8203125 141.2109375 41.88515625 141.2109375 37.03125V8.7890625C141.2109375 3.93515625 145.14609375 0 150 0S158.7890625 3.93515625 158.7890625 8.7890625V37.03125C158.7890625 41.88515625 154.85390625 45.8203125 150 45.8203125zM291.2109375 158.7890625H262.96875C258.1148437500001 158.7890625 254.1796875 154.85390625 254.1796875 150S258.1148437500001 141.2109375 262.96875 141.2109375H291.2109375C296.06484375 141.2109375 300 145.14609375 300 150S296.06484375 158.7890625 291.2109375 158.7890625zM45.8203125 150C45.8203125 154.85390625 41.88515625 158.7890625 37.03125 158.7890625H8.7890625C3.93515625 158.7890625 0 154.85390625 0 150S3.93515625 141.2109375 8.7890625 141.2109375H37.03125C41.88515625 141.2109375 45.8203125 145.14609375 45.8203125 150zM236.09765625 223.66875L256.0646484375 243.6357421875C259.4970703125 247.0681640625 259.4970703125 252.6328125 256.0646484375 256.065234375C252.6328125 259.49765625 247.067578125 259.49765625 243.63515625 256.065234375L223.6681640625 236.0982421875C220.2357421875 232.6658203125 220.2357421875 227.101171875 223.6681640625 223.66875C227.0994140625 220.2369140625 232.665234375 220.23515625 236.09765625 223.66875zM63.90234375 76.33125L43.9353515625 56.3642578125C40.5029296875 52.9318359375 40.5029296875 47.3671875 43.9353515625 43.934765625C47.3666015625 40.5029296874999 52.932421875 40.5017578125 56.36484375 43.934765625L76.3318359375 63.9017578125C79.7642578125 67.3341796875 79.7642578125 72.898828125 76.3318359375 76.33125C72.8994140625 79.7642578125 67.3341796875 79.7642578125 63.90234375 76.33125zM236.09765625 76.33125C232.6658203125 79.763671875 227.1005859375 79.763671875 223.6681640625 76.33125C220.2357421875 72.898828125 220.2357421875 67.3341796875 223.6681640625 63.9017578125L243.63515625 43.934765625C247.06640625 40.5029296874999 252.6322265625 40.5017578125 256.0646484375 43.934765625C259.4970703125 47.3671875 259.4970703125 52.9318359375 256.0646484375 56.3642578125L236.09765625 76.33125zM63.90234375 223.66875C67.33359375 220.2369140625 72.8994140625 220.2357421875 76.3318359375 223.66875C79.7642578125 227.101171875 79.7642578125 232.6658203125 76.3318359375 236.0982421875L56.3642578125 256.065234375C52.932421875 259.49765625 47.3671875 259.49765625 43.934765625 256.065234375C40.50234375 252.6328125 40.50234375 247.0681640625 43.934765625 243.6357421875L63.90234375 223.66875zM150 224.6876953125C108.8173828125 224.6876953125 75.3123046875 191.1826171875 75.3123046875 150S108.8173828125 75.3123046875 150 75.3123046875S224.6876953125 108.8173828125 224.6876953125 150S191.1826171875 224.6876953125 150 224.6876953125zM150 92.8904296875C118.5099609375 92.8904296875 92.8904296875 118.5099609375 92.8904296875 150S118.5099609375 207.1095703125 150 207.1095703125S207.1095703125 181.4900390625 207.1095703125 150S181.4900390625 92.8904296875 150 92.8904296875z" />
    <glyph glyph-name="053-search-interface-symbol"
      unicode="&#xF133;"
      horiz-adv-x="300" d="M297.1564190127612 16.3213019395108L219.7013120700642 92.5386840084312C239.9843139817977 114.5755788304113 252.4468554435385 143.7197104622474 252.4468554435385 175.7897746768844C252.4370516821621 244.3935556608552 195.9301318605905 300 126.2199964052875 300C56.5098609499845 300 0.0029411284129 244.3935556608552 0.0029411284129 175.7897746768844S56.5098609499845 51.5795493537687 126.2199964052875 51.5795493537687C156.3396022940802 51.5795493537687 183.9646411006356 61.9975163804513 205.663796343197 79.3173314161533L283.4193885720822 2.7994640610448C287.2080521560106 -0.932827894969 293.3589320435941 -0.932827894969 297.1475956275225 2.7994640610448C300.9450825966896 6.5312658289897 300.9450825966896 12.589009983497 297.1564190127612 16.3213019395108zM126.2199964052875 70.690021404879C67.2376268361628 70.690021404879 19.423212039019 117.7446446953481 19.423212039019 175.7897746768844S67.2376268361628 280.8895279488898 126.2199964052875 280.8895279488898C185.202856162481 280.8895279488898 233.016780771556 233.8349046584206 233.016780771556 175.7897746768844S185.202856162481 70.690021404879 126.2199964052875 70.690021404879z" />
    <glyph glyph-name="054-search"
      unicode="&#xF134;"
      horiz-adv-x="300" d="M154.865625 242.3625C157.30625 239.921875 157.30625 235.965625 154.865625 233.525C153.64375 232.303125 152.046875 231.69375 150.446875 231.69375S147.25 232.303125 146.028125 233.525C124.090625 255.459375 88.409375 255.459375 66.475 233.525C64.034375 231.084375 60.078125 231.084375 57.6375 233.525S55.196875 239.921875 57.6375 242.3625C84.440625 269.16875 128.059375 269.16875 154.8656249999999 242.3625zM281.25 43.75C281.25 37.071875 278.65 30.79375 273.925 26.075C269.20625 21.35 262.928125 18.7500000000001 256.25 18.7500000000001S243.29375 21.35 238.575 26.075L172.95 91.7C170.509375 94.140625 170.509375 98.096875 172.95 100.5375L181.7875 109.3750000000001L167.928125 123.234375C151.428125 108.7875 129.853125 100.0000000000001 106.25 100.0000000000001C54.55625 100.0000000000001 12.5 142.0562500000001 12.5 193.7500000000001S54.55625 287.5000000000001 106.25 287.5000000000001S200 245.4437500000001 200 193.7500000000001C200 170.1468750000001 191.2125 148.5718750000001 176.765625 132.071875L190.625 118.2125000000001L199.4625 127.0500000000001C201.903125 129.4906250000001 205.859375 129.4906250000001 208.3000000000001 127.0500000000001L273.9250000000001 61.4250000000001C278.6500000000001 56.7062500000001 281.2500000000001 50.4281250000001 281.2500000000001 43.7500000000001zM187.5 193.75C187.5 238.55 151.053125 275 106.25 275S25 238.55 25 193.75S61.446875 112.5 106.25 112.5S187.5 148.95 187.5 193.75zM268.75 43.75C268.75 47.0875 267.45 50.225 265.0875 52.5875L203.88125 113.79375L186.20625 96.11875L247.4125 34.9125C252.1375 30.1875 260.365625 30.1875 265.0875 34.9125C267.45 37.275 268.75 40.4125 268.75 43.7500000000001z" />
    <glyph glyph-name="055-up-arrow"
      unicode="&#xF135;"
      horiz-adv-x="300" d="M190.3846153846154 238.25C141.8846153846154 258.1730769230769 92.6923076923077 234.4038461538462 69.8653846153846 189.7884615384616C46.6346153846154 144.3653846153847 49.5 84.2115384615385 73.8269230769231 39.9615384615385C78.9038461538462 30.7500000000001 91.7692307692308 38.8269230769231 87.6538461538462 48.0384615384616C69.6923076923077 88.2884615384616 66.2115384615385 135.9230769230769 83.8076923076923 176.8846153846154A92.1923076923077 92.1923076923077 0 0 0 120.8461538461539 219.7692307692308C142.4807692307692 233.0576923076923 165.0769230769231 231.0384615384616 189.0576923076923 228.9807692307693C194.8269230769231 228.4807692307693 194.8076923076923 236.4038461538462 190.3846153846154 238.2500000000001zM243.3846153846154 230.4230769230769C223.8269230769231 243.7115384615385 203 259.8846153846154 179.1153846153846 264.0384615384616A3.3653846153846 3.3653846153846 0 0 1 177.3269230769231 257.5576923076923C197.4038461538461 249.673076923077 214.4807692307692 238.0192307692308 231.5576923076923 225.3076923076923C220.7115384615384 216.6730769230769 208.1923076923077 209.5769230769231 198.8653846153846 199.4230769230769A5.2115384615385 5.2115384615385 0 0 1 205.1538461538461 191.2884615384616A178.5961538461539 178.5961538461539 0 0 1 244.4615384615385 221.5769230769231A5.7692307692308 5.7692307692308 0 0 1 243.3846153846154 230.423076923077z" />
    <glyph glyph-name="056-up-right-arrow"
      unicode="&#xF136;"
      horiz-adv-x="300" d="M262.5 271.875H37.5C32.325 271.875 28.125 267.675 28.125 262.5S32.325 253.125 37.5 253.125H239.8640625L30.871875 44.128125C27.2109375 40.4671875 27.2109375 34.5328125 30.871875 30.871875C32.7046875 29.0390625 35.1 28.125 37.5 28.125S42.3 29.0390625 44.128125 30.871875L253.125 239.86875V37.5C253.125 32.325 257.325 28.125 262.5 28.125S271.875 32.325 271.875 37.5V262.5C271.875 267.675 267.675 271.875 262.5 271.875z" />
    </font>
</defs>
</svg>
